<?xml version="1.0" standalone="no"?>
<!DOCTYPE svg PUBLIC "-//W3C//DTD SVG 1.1//EN" "http://www.w3.org/Graphics/SVG/1.1/DTD/svg11.dtd" >
<svg xmlns="http://www.w3.org/2000/svg">
<metadata>Generated by IcoMoon</metadata>
<defs>
<font id="icomoon" horiz-adv-x="1024">
<font-face units-per-em="1024" ascent="960" descent="-64" />
<missing-glyph horiz-adv-x="1024" />
<glyph unicode="&#x20;" horiz-adv-x="512" d="" />
<glyph unicode="&#xe63;" glyph-name="uniE629" d="M362.368 257.088c-6.496-30.016-8-57.088-8-105.152 0-114.816 83.648-215.936 157.632-215.936 52.256 0 95.328 42.72 96 95.264 0.704 64.448 20.64 175.744 128 232.192 7.872 4.16 30.4 15.264 33.696 16.704 15.104-13.056 38.4-24.16 62.304-24.16h96c52.928 0 96 43.072 96 96v512c0 52.928-43.072 96-96 96h-96c-38.080 0-69.952-23.008-85.376-55.264-3.616 0.96-6.112 1.568-9.152 2.368-19.904 4.96-55.392 13.44-131.232 30.88-16.256 3.712-102.144 22.016-191.104 22.016h-174.944c-53.312 0-91.744-20.512-114.624-61.696-0.32-0.64-7.68-15.008-13.696-34.432-4.512-14.624-110.112-436.512-111.072-460.192l-0.384-6.688c-0.224-4.192-0.416-6.784-0.416-16 0-40.416 28-91.968 90.752-109.888 40-10.496 134.048-10.368 271.616-14.016zM810.106 857.264c0 17.696 14.304 32 32 32h96c17.696 0 32-14.304 32-32v-512c0-17.696-14.304-32-32-32h-96c-17.696 0-32 14.304-32 32v512zM173.024 844.992c4 12.992 8.736 22.624 8.928 23.072 9.664 17.44 25.248 27.936 58.24 27.936h174.944c87.872 0 175.040-19.936 177.28-20.448 132.928-30.624 139.936-32.992 148.288-35.36 0 0 27.072-4.576 27.072-28.192l0.224-441.984c0-15.008-9.568-28.576-25.408-33.344-1.984-0.768-4.672-1.6-6.592-2.4-146.176-60.544-190.688-193.28-192-302.272-0.192-15.328-12-32-32-32-33.824 0-93.632 67.904-93.632 151.936 0 75.872 3.072 88.992 29.632 168.064-320 0-317.76 4.608-345.984 12-35.008 10.016-38.016 39.008-38.016 48.992 0 10.976 0.32 9.376 0.736 20.128 0 0 104.64 432 108.288 443.872z" />
<glyph unicode="&#xe000;" glyph-name="uniE000" d="M512 832q69.668 0 135.5-21.168t115.5-55 93.5-74.832 73.668-82 51.668-74.834 32.168-54.832l10-21.334q-2.332-5-6.332-13.5t-18.832-34.668-31.668-51.668-44.332-60-56.832-64.332-69.5-60.168-82.332-51.5-94.832-34.668-107.332-13.5q-69.668 0-135.5 21.168t-115.5 54.832-93.5 74.332-73.668 81.5-51.668 74.5-32.168 55l-10 21q2.334 5 6.334 13.5t18.832 34.834 31.668 51.832 44.332 60.334 56.832 64.666 69.5 60.334 82.334 51.832 94.832 34.832 107.332 13.5zM512 746.668q-46.668 0-91.668-12.332t-81.168-31.832-70.668-47.168-59.668-54.5-48.832-57.666-37.668-52.834-26.332-44q12.332-21.668 26.332-43.5t37.668-52.332 48.832-57 59.668-53.832 70.668-46.668 81.168-31.5 91.668-12.168 91.668 12.332 81.168 31.668 70.668 46.832 59.668 54.168 48.832 57.332 37.668 52.668 26.332 43.668q-12.332 21.668-26.332 43.668t-37.668 52.668-48.832 57.332-59.668 54.168-70.668 46.832-81.168 31.668-91.668 12.332zM512 618.668q70.668 0 120.668-50t50-120.668-50-120.668-120.668-50-120.668 50-50 120.668 50 120.668 120.668 50zM512 533.334q-35.332 0-60.332-25t-25-60.334 25-60.332 60.332-25 60.332 25 25 60.332-25 60.334-60.332 25z" />
<glyph unicode="&#xe001;" glyph-name="uniE001" d="M674 960q41.668 0 80-15.666 40-16 70.668-46.668 31-31.332 46.668-70.334 15.332-37.666 15.332-80t-15.332-80q-15.668-39-46.668-70.332l-392.666-392.668q-18-18-42.666-28.332-24-9.332-48-9.332t-48 9.332q-24.668 10.332-42.668 28.332-18.668 18.668-28 42.332-9.332 22.668-9.332 48 0 25.668 9.332 48.332 9.332 23.332 28 42.332l362.334 362q12.668 12.668 30.332 12.668 17.332 0 30-12.668t12.668-30q0-17.666-12.668-30.332l-362.334-362q-12.334-12.332-12.334-30.332 0-17.668 12.334-30 13.334-12.668 30.334-12.668t30.332 12.668l392.668 392.668q37 37 37 90t-37 90q-38 37.332-90.332 37.332-52.668 0-90-37.332l-393.666-391.668q-30.668-30.668-46.668-70.668-15.668-38.332-15.668-80.332 0-41.332 15.668-80.332 16-39.668 46.668-70.332 31.668-31.332 70.666-47t80.332-15.668 80.332 15.668 70.668 47l392 392q12.668 12.668 30.332 12.668 17.332 0 30-12.668t12.668-30q0-17.668-12.668-30.332l-392-392q-43-43-99-65.668-53.332-22-112.332-22-58.668 0-112.332 22-56 22.668-99 65.668-42.668 42.668-65.332 98.668-22 54-22 112.332 0 58.668 22 112.332 22.332 55.332 65.332 99h0.332l393.334 391.666q30.668 30.668 70.332 46.668 39 15.666 80 15.666z" />
<glyph unicode="&#xe002;" glyph-name="uniE002" d="M170.668 832h682.668q53 0 90.5-37.5t37.5-90.5v-512q0-53-37.5-90.5t-90.5-37.5h-682.668q-53 0-90.5 37.5t-37.5 90.5v512q0 53 37.5 90.5t90.5 37.5zM896 192v466l-357.334-286q-11.332-9.332-26.668-9.332t-26.668 9.332l-357.334 286v-466q0-17.668 12.5-30.168t30.168-12.5h682.668q17.668 0 30.168 12.5t12.5 30.168zM853.332 746.668h-682.668q-6.332 0-14-2.332l355.334-284.334 355.334 284.334q-7.668 2.332-14 2.332z" />
<glyph unicode="&#xe003;" glyph-name="uniE003" d="M341.334 789.334h341.334q69.332 0 132.5-27t109-72.832 72.832-109 27-132.5-27-132.5-72.832-109-109-72.832-132.5-27h-341.334q-69.334 0-132.5 27t-109 72.832-72.832 109-27 132.5 27 132.5 72.832 109 109 72.832 132.5 27zM341.334 618.668q70.666 0 120.666-50t50-120.668-50-120.668-120.668-50-120.668 50-50 120.668 50 120.668 120.668 50zM341.334 533.334q-35.334 0-60.334-25t-25-60.334 25-60.332 60.332-25 60.332 25 25 60.332-25 60.334-60.332 25zM682.668 704h-341.334q-69.666 0-128.5-34.334t-93.168-93.166-34.332-128.5 34.332-128.5 93.168-93.168 128.5-34.332h341.334q69.668 0 128.5 34.332t93.168 93.168 34.332 128.5-34.332 128.5-93.168 93.166-128.5 34.334z" />
<glyph unicode="&#xe004;" glyph-name="uniE004" d="M170.668 917.334h682.668q53 0 90.5-37.5t37.5-90.5v-682.668q0-53-37.5-90.5t-90.5-37.5h-682.668q-53 0-90.5 37.5t-37.5 90.5v682.668q0 53 37.5 90.5t90.5 37.5zM341.334 64v512h-213.332v-469.334q0-17.668 12.5-30.168t30.168-12.5h170.668zM896 106.668v469.334h-469.334v-512h426.666q17.668 0 30.168 12.5t12.5 30.168zM853.332 832h-682.668q-17.668 0-30.168-12.5t-12.5-30.168v-128h768v128q0 17.668-12.5 30.168t-30.168 12.5z" />
<glyph unicode="&#xe005;" glyph-name="uniE005" d="M725.332 917.334q50.332 0 97.168-19t83.832-56 56-83.832 19-97.168q0-50-19.168-97.166t-55.832-83.834l-128-128q-3.668-3.668-11-10.332-35.668-31.668-79.668-48.168t-90.332-16.5q-58.332 0-110.332 25-39 18.332-70.668 50t-50 70.668q25 25 60.332 25 12.334 0 25-3.668 21.668-35 56.668-56.668 41-25 89-25 33.332 0 64.668 12.668t56 37.332l128 128q24.668 24.666 37.332 56t12.668 64.666-12.668 64.668-37.332 56-56 37.332-64.668 12.668-64.668-12.668-56-37.332l-89.668-89.668q-42.668 11.668-88.332 11.668-7.334 0-20.668-0.668 6.666 7.334 10.334 11l128 128q36.668 36.668 83.832 55.834t97.168 19.166zM426.666 618.668q58.334 0 110.334-25 39-18.334 70.668-50t50-70.666q-25-25-60.332-25-12.332 0-25 3.668-21.668 35-56.668 56.666-41 25-89 25-33.332 0-64.668-12.666t-56-37.334l-128-128q-24.668-24.668-37.332-56t-12.668-64.668 12.668-64.668 37.332-56 56-37.332 64.668-12.668 64.668 12.668 56 37.332l89.668 89.668q42.668-11.668 88.332-11.668 7.332 0 20.668 0.668-6.668-7.332-10.332-11l-128-128q-37-37-83.832-56t-97.168-19q-50 0-97.168 19.168t-83.832 55.832q-37 37-56 83.832t-19 97.168 19 97.168 56 83.832l128 128q3.668 3.666 11 10.332 35.668 31.668 79.668 48.168t90.332 16.5z" />
<glyph unicode="&#xe006;" glyph-name="uniE006" d="M512 917.334q55 0 104-17.834t87-49.168 68.332-74.5 50.5-93.332 31.5-106.5q33.668-169 71.5-267.168t99.168-159.5h-391.334q7.332-21 7.332-42.668 0-53-37.5-90.5t-90.5-37.5-90.5 37.5-37.5 90.5q0 21.668 7.334 42.668h-391.334q61.332 61.332 99.168 159.5t71.5 267.168q11.332 56.334 31.5 106.5t50.5 93.332 68.332 74.5 87 49.168 104 17.832zM512 149.334q-17.668 0-30.168-12.5t-12.5-30.168 12.5-30.168 30.168-12.5 30.168 12.5 12.5 30.168-12.5 30.168-30.168 12.5zM512 832q-38.668 0-72.832-12t-58.5-30.668-45.168-44.832-33.832-50.834-23.5-52.666-15.5-46.168-8.332-35.5q-42.668-215-94-324.668h703.332q-51.332 109.668-94 324.668-3.332 17.334-8.332 35.5t-15.5 46.166-23.5 52.668-33.832 50.832-45.168 44.834-58.5 30.666-72.832 12z" />
<glyph unicode="&#xe007;" glyph-name="uniE007" d="M512 917.334q69.668 0 128.5-34.334t93.168-93.168 34.332-128.5v-170.666h85.332q53 0 90.5-37.5t37.5-90.5v-256q0-53-37.5-90.5t-90.5-37.5h-682.668q-53 0-90.5 37.5t-37.5 90.5v256q0 53 37.5 90.5t90.5 37.5h85.332v170.666q0 69.668 34.332 128.5t93.166 93.168 128.5 34.332zM853.332 405.334h-682.668q-17.668 0-30.168-12.5t-12.5-30.168v-256q0-17.668 12.5-30.168t30.168-12.5h682.668q17.668 0 30.168 12.5t12.5 30.168v256q0 17.668-12.5 30.168t-30.168 12.5zM512 832q-70.668 0-120.668-50t-50-120.668v-170.666h341.332v170.666q0 70.668-50 120.668t-120.668 50z" />
<glyph unicode="&#xe008;" glyph-name="uniE008" d="M512 917.334q69.668 0 128.5-34.334t93.168-93.168 34.332-128.5v-42.666q0-17.668-12.5-30.168t-30.168-12.5-30.168 12.5-12.5 30.168v42.666q0 70.668-50 120.668t-120.668 50-120.668-50-50-120.668v-170.666h512q53 0 90.5-37.5t37.5-90.5v-256q0-53-37.5-90.5t-90.5-37.5h-682.668q-53 0-90.5 37.5t-37.5 90.5v256q0 53 37.5 90.5t90.5 37.5h85.332v170.666q0 69.668 34.332 128.5t93.166 93.168 128.5 34.332zM853.332 405.334h-682.668q-17.668 0-30.168-12.5t-12.5-30.168v-256q0-17.668 12.5-30.168t30.168-12.5h682.668q17.668 0 30.168 12.5t12.5 30.168v256q0 17.668-12.5 30.168t-30.168 12.5z" />
<glyph unicode="&#xe009;" glyph-name="uniE009" d="M298.666 917.334h426.666q53 0 90.5-37.5t37.5-90.5v-810.668l-341.332 256-341.334-256v810.668q0 53 37.5 90.5t90.5 37.5zM725.332 832h-426.666q-17.666 0-30.166-12.5t-12.5-30.168v-640l256 192 256-192v640q0 17.668-12.5 30.168t-30.168 12.5z" />
<glyph unicode="&#xe010;" glyph-name="uniE010" d="M170.668 917.334h682.668q53 0 90.5-37.5t37.5-90.5v-682.668q0-53-37.5-90.5t-90.5-37.5h-682.668q-53 0-90.5 37.5t-37.5 90.5v682.668q0 53 37.5 90.5t90.5 37.5zM896 217l-213.332 213.332-366.334-366.332h537q17.668 0 30.168 12.5t12.5 30.168v110.332zM853.332 832h-682.668q-17.668 0-30.168-12.5t-12.5-30.168v-682.668q0-17.668 12.5-30.168t30.168-12.5h25l487 487 213.332-213.332v451.668q0 17.666-12.5 30.166t-30.168 12.5zM341.334 746.668q53 0 90.5-37.5t37.5-90.5-37.5-90.5-90.5-37.5-90.5 37.5-37.5 90.5 37.5 90.5 90.5 37.5zM341.334 661.334q-17.666 0-30.166-12.5t-12.5-30.168 12.5-30.166 30.168-12.5 30.168 12.5 12.5 30.166-12.5 30.168-30.168 12.5z" />
<glyph unicode="&#xe011;" glyph-name="uniE011" d="M512 789.334q131 0 255-46t225-135.332q14.332-12.334 14.332-32 0-16.668-10.668-28.334l-2-2q-12.332-12.332-30-12.332-16.668 0-28.332 10.668-89 78.666-198.5 119.332t-224.832 40.668-224.832-40.668-198.5-119.332q-11.668-10.668-28.332-10.668-19.668 0-32 14.332-10.668 11.668-10.668 28.334 0 19.666 14.332 32 101.332 89.332 225.168 135.332t254.832 46zM512.332 277.334q58 0 107.668-29.332 10-6 15.668-15.832t5.668-21.168-6-21.332q-3-5-6.668-8.668-12.332-12.332-30.332-12.332-12 0-21.332 5.668-30.332 17.668-64.668 17.668-34.668 0-65-17.668-10.666-6-21.668-6-24.332 0-37 21-6 10-6 21.332 0 24.332 21 37 50.332 29.668 108.668 29.668zM512 533q80.668 0 157-26.668t140-79q15.668-12.668 15.668-33 0-15.332-9.668-27-2-2.668-2.668-3.332-12.332-12.332-30-12.332-15.668 0-27.332 9.668-52 42.668-114.668 64.668t-128.332 22-128.332-22-114.668-64.668q-11.666-9.668-27-9.668-20.332 0-33 15.668-9.668 11.668-9.668 27 0 20.332 15.668 33 63.332 52.334 140 79t157 26.668z" />
<glyph unicode="&#xe012;" glyph-name="uniE012" d="M512 917.334q95.668 0 182.5-37.168t149.668-100 100-149.666 37.168-182.5-37.168-182.5-100-149.668-149.668-100-182.5-37.168-182.5 37.168-149.668 100-100 149.668-37.168 182.5 37.168 182.5 100 149.666 149.668 100 182.5 37.168zM512 832q-78 0-149.168-30.5t-122.5-81.834-81.832-122.5-30.5-149.168 30.5-149.168 81.832-122.5 122.5-81.832 149.168-30.5 149.168 30.5 122.5 81.832 81.832 122.5 30.5 149.168-30.5 149.168-81.832 122.5-122.5 81.834-149.168 30.5zM512 746.668q60.668 0 116-23.666t95.332-63.668 63.668-95.332 23.668-116-23.668-116-63.668-95.332-95.332-63.668-116-23.668-116 23.668-95.332 63.668-63.668 95.332-23.668 116 23.668 116 63.668 95.332 95.332 63.668 116 23.668zM512 661.334q-43.332 0-82.832-17t-68-45.5-45.5-68-17-82.834 17-82.832 45.5-68 68-45.5 82.832-17 82.832 17 68 45.5 45.5 68 17 82.832-17 82.834-45.5 68-68 45.5-82.832 17zM512 576q53 0 90.5-37.5t37.5-90.5-37.5-90.5-90.5-37.5-90.5 37.5-37.5 90.5 37.5 90.5 90.5 37.5zM512 490.668q-17.668 0-30.168-12.5t-12.5-30.168 12.5-30.168 30.168-12.5 30.168 12.5 12.5 30.168-12.5 30.168-30.168 12.5z" />
<glyph unicode="&#xe013;" glyph-name="uniE013" d="M426.666 917.334h170.666q41.332 0 74.332-23.834t46.332-61.5h50q53 0 90.5-37.5t37.5-90.5v-597.334q0-53-37.5-90.5t-90.5-37.5h-512q-53 0-90.5 37.5t-37.5 90.5v597.334q0 53 37.5 90.5t90.5 37.5h50q13.334 37.666 46.332 61.5t74.332 23.834zM768 746.668h-50q-13.332-37.666-46.332-61.5t-74.332-23.832h-170.668q-41.332 0-74.332 23.832t-46.332 61.5h-50q-17.668 0-30.168-12.5t-12.5-30.166v-597.334q0-17.668 12.5-30.168t30.168-12.5h512q17.668 0 30.168 12.5t12.5 30.168v597.334q0 17.666-12.5 30.166t-30.168 12.5zM597.332 832h-170.668q-17.668 0-30.168-12.5t-12.5-30.168 12.5-30.166 30.168-12.5h170.668q17.668 0 30.168 12.5t12.5 30.166-12.5 30.168-30.168 12.5z" />
<glyph unicode="&#xe014;" glyph-name="uniE014" d="M512 917.334q95.668 0 182.5-37.168t149.668-100 100-149.666 37.168-182.5-37.168-182.5-100-149.668-149.668-100-182.5-37.168-182.5 37.168-149.668 100-100 149.668-37.168 182.5 37.168 182.5 100 149.666 149.668 100 182.5 37.168zM512 832q-78 0-149.168-30.5t-122.5-81.834-81.832-122.5-30.5-149.168 30.5-149.168 81.832-122.5 122.5-81.832 149.168-30.5 149.168 30.5 122.5 81.832 81.832 122.5 30.5 149.168-30.5 149.168-81.832 122.5-122.5 81.834-149.168 30.5zM512 746.668q17.668 0 30.168-12.5t12.5-30.166v-238.334l115.668-115.332q12.332-12.332 12.332-30.332t-12.332-30.332-30.332-12.332-30.332 12.332l-128 128q-12.334 12.332-12.334 30.332v256q0 17.668 12.5 30.168t30.166 12.5z" />
<glyph unicode="&#xe015;" glyph-name="uniE015" d="M384 960h256q53 0 90.5-37.5t37.5-90.5v-98q60-53.334 94-127.834t34-158.168-34-158-94-128v-98q0-53-37.5-90.5t-90.5-37.5h-256q-53 0-90.5 37.5t-37.5 90.5v98q-60 53.668-94 128t-34 158 34 158.168 94 127.834v98q0 53 37.5 90.5t90.5 37.5zM682.668 64v40q-80-40-170.668-40t-170.668 40v-40q0-17.668 12.5-30.168t30.168-12.5h256q17.668 0 30.168 12.5t12.5 30.168zM512 746.668q-60.668 0-116-23.666t-95.332-63.668-63.668-95.332-23.668-116 23.668-116 63.668-95.332 95.332-63.668 116-23.668 116 23.668 95.332 63.668 63.668 95.332 23.668 116-23.668 116-63.668 95.332-95.332 63.668-116 23.668zM512 661.334q17.668 0 30.168-12.5t12.5-30.168v-153l73-72.668q12.332-12.332 12.332-30.332t-12.332-30.332-30.332-12.332-30.332 12.332l-85.332 85.332q-12.334 12.332-12.334 30.332v170.668q0 17.668 12.5 30.168t30.166 12.5zM640 874.668h-256q-17.668 0-30.168-12.5t-12.5-30.166v-40q80 40 170.668 40t170.668-40v40q0 17.666-12.5 30.166t-30.168 12.5z" />
<glyph unicode="&#xe016;" glyph-name="uniE016" d="M170.668 874.668h682.668q53 0 90.5-37.5t37.5-90.5v-426.668q0-53-37.5-90.5t-90.5-37.5h-106.668l-64 85.332h170.668q17.668 0 30.168 12.5t12.5 30.168v426.668q0 17.666-12.5 30.166t-30.168 12.5h-682.668q-17.668 0-30.168-12.5t-12.5-30.166v-426.668q0-17.668 12.5-30.168t30.168-12.5h170.668l-64-85.332h-106.668q-53 0-90.5 37.5t-37.5 90.5v426.668q0 53 37.5 90.5t90.5 37.5zM597.332 106.668l-85.332 113.668-85.332-113.668h170.668zM256 21.334l256 341.332 256-341.334h-512z" />
<glyph unicode="&#xe017;" glyph-name="uniE017" d="M341.334 874.668h341.334l85.332-128h128q53 0 90.5-38.166t37.5-91.168v-468.668q0-53-37.5-90.168t-90.5-37.168h-768q-53 0-90.5 37.5t-37.5 90.5v468.668q0 53 37.5 90.832t90.5 37.832h128zM512 618.668q43.332 0 82.832-17t68-45.5 45.5-68 17-82.834-17-82.832-45.5-68-68-45.5-82.832-17-82.832 17-68 45.5-45.5 68-17 82.832 17 82.834 45.5 68 68 45.5 82.832 17zM512 533.334q-53 0-90.5-37.5t-37.5-90.5 37.5-90.5 90.5-37.5 90.5 37.5 37.5 90.5-37.5 90.5-90.5 37.5zM722.332 661.334l-83.668 128h-251.668l-85.332-128h-173.668q-17.668 0-30.168-12.668t-12.5-30.666v-468.668q0-17.668 12.5-30.168t30.168-12.5h768q18 0 30.332 12.168t12.332 29.832v468.668q0 18-12.668 31t-30 13h-173.668z" />
<glyph unicode="&#xe018;" glyph-name="uniE018" d="M128 746.668h469.334q53 0 90.5-37.5t37.5-90.5v-77.666l298.666 163v-512l-298.666 163v-77.668q0-53-37.5-90.5t-90.5-37.5h-469.334q-53 0-90.5 37.5t-37.5 90.5v341.334q0 53 37.5 90.5t90.5 37.5zM597.332 661.334h-469.334q-17.668 0-30.168-12.5t-12.5-30.168v-341.332q0-17.668 12.5-30.168t30.168-12.5h469.334q17.668 0 30.168 12.5t12.5 30.168v341.334q0 17.668-12.5 30.168t-30.168 12.5zM938.668 335.668v224.668l-205.668-112.334z" />
<glyph unicode="&#xe019;" glyph-name="uniE019" d="M512 917.334q95.668 0 182.5-37.168t149.668-100 100-149.666 37.168-182.5-37.168-182.5-100-149.668-149.668-100-182.5-37.168-182.5 37.168-149.668 100-100 149.668-37.168 182.5 37.168 182.5 100 149.666 149.668 100 182.5 37.168zM512 832q-78 0-149.168-30.5t-122.5-81.834-81.832-122.5-30.5-149.168 30.5-149.168 81.832-122.5 122.5-81.832 149.168-30.5 149.168 30.5 122.5 81.832 81.832 122.5 30.5 149.168-30.5 149.168-81.832 122.5-122.5 81.834-149.168 30.5zM512 618.668q70.668 0 120.668-50t50-120.668-50-120.668-120.668-50-120.668 50-50 120.668 50 120.668 120.668 50zM512 533.334q-35.332 0-60.332-25t-25-60.334 25-60.332 60.332-25 60.332 25 25 60.332-25 60.334-60.332 25z" />
<glyph unicode="&#xe020;" glyph-name="uniE020" d="M384 874.668h256q53 0 90.5-37.5t37.5-90.5v-213.332h85.332q53 0 90.5-37.5t37.5-90.5v-170.668q0-53-37.5-90.5t-90.5-37.5h-92.668q-13.332-37.668-46.332-61.5t-74.332-23.832h-256q-41.332 0-74.332 23.832t-46.332 61.5h-92.668q-53 0-90.5 37.5t-37.5 90.5v170.668q0 53 37.5 90.5t90.5 37.5h85.332v213.332q0 53 37.5 90.5t90.5 37.5zM640 192h-256q-17.668 0-30.168-12.5t-12.5-30.168 12.5-30.168 30.168-12.5h256q17.668 0 30.168 12.5t12.5 30.168-12.5 30.168-30.168 12.5zM853.332 448h-682.668q-17.668 0-30.168-12.5t-12.5-30.168v-170.668q0-17.668 12.5-30.168t30.168-12.5h92.668q13.334 37.668 46.332 61.5t74.332 23.832h256q41.332 0 74.332-23.832t46.332-61.5h92.668q17.668 0 30.168 12.5t12.5 30.168v170.668q0 17.668-12.5 30.168t-30.168 12.5zM640 789.334h-256q-17.668 0-30.168-12.5t-12.5-30.166v-213.334h341.332v213.334q0 17.666-12.5 30.166t-30.168 12.5z" />
<glyph unicode="&#xe021;" glyph-name="uniE021" d="M170.668 874.668h682.668q53 0 90.5-37.5t37.5-90.5v-426.668q0-53-37.5-90.5t-90.5-37.5h-298.666v-85.332h128q17.668 0 30.168-12.5t12.5-30.168-12.5-30.168-30.168-12.5h-341.334q-17.666 0-30.166 12.5t-12.5 30.168 12.5 30.168 30.168 12.5h128v85.332h-298.666q-53 0-90.5 37.5t-37.5 90.5v426.668q0 53 37.5 90.5t90.5 37.5zM853.332 789.334h-682.668q-17.668 0-30.168-12.5t-12.5-30.166v-426.668q0-17.668 12.5-30.168t30.168-12.5h682.668q17.668 0 30.168 12.5t12.5 30.168v426.668q0 17.666-12.5 30.166t-30.168 12.5z" />
<glyph unicode="&#xe022;" glyph-name="uniE022" d="M512 917.334q87.332 0 169-10.5t149.832-30.668 109.332-53.668 41.168-75.832v-597.332q0-42.332-41.168-75.832t-109.332-53.668-149.832-30.668-169-10.5-169 10.5-149.832 30.668-109.332 53.668-41.168 75.832v597.332q0 42.334 41.168 75.834t109.332 53.666 149.832 30.668 169 10.5zM896 150v194.332q-65.332-33-168.332-50t-215.668-17-215.668 17-168.332 50v-195q2-7.332 17.832-17.668t48.5-22.332 76-22 107-16.668 134.668-6.668 134.668 6.668 107 16.832 76 22.168 48.5 22.332 17.832 18zM896 448.668v194.334q-65.332-33-168.332-50t-215.668-17-215.668 17-168.332 50v-195q2-7.332 17.832-17.668t48.5-22.332 76-22 107-16.668 134.668-6.668 134.668 6.668 106.832 16.668 75.832 22 48.668 22.5 18 18.168zM512 832q-70.332 0-133.668-6.668t-106.332-16.5-75.832-21.666-49.168-22.334-19-18.166q2.668-7.668 19-18.168t49.168-22.332 75.832-21.666 106.332-16.5 133.668-6.668 133.668 6.668 106.332 16.5 75.832 21.666 49.168 22.334 19 18.166q-2.668 7.668-19 18.168t-49.168 22.332-75.832 21.668-106.332 16.5-133.668 6.668z" />
<glyph unicode="&#xe023;" glyph-name="uniE023" d="M512 960q53 0 90.5-37.5t37.5-90.5v-22q15.668-5.334 37.668-15.334l15.332 15.334q37.668 37.666 90.668 37.666 52.668 0 90.332-37.666t37.668-90.334q0-53-37.668-90.666l-15.332-15.334q10-22 15.332-37.666h22q53 0 90.5-37.5t37.5-90.5-37.5-90.5-90.5-37.5h-22q-5.332-15.668-15.332-37.668l15.332-15.332q37.668-37.668 37.668-90.668 0-52.668-37.668-90.332t-90.332-37.668q-53 0-90.668 37.668l-15.332 15.332q-22-10-37.668-15.332v-22q0-53-37.5-90.5t-90.5-37.5-90.5 37.5-37.5 90.5v22q-15.666 5.332-37.668 15.332l-15.334-15.332q-37.666-37.668-90.332-37.668-53 0-90.5 37.668t-37.5 90.332q0 53.332 37.332 90.668l15.332 15.332q-10 22-15.332 37.668h-22q-53 0-90.5 37.5t-37.5 90.5 37.5 90.5 90.5 37.5h22q5.332 15.666 15.332 37.666l-15.332 15.334q-37.332 37.334-37.332 90.666 0 52.668 37.5 90.334t90.5 37.666q52.668 0 90.332-37.666l15.334-15.334q22 10 37.668 15.334v22q0 53 37.5 90.5t90.5 37.5zM512 874.668q-17.668 0-30.168-12.5t-12.5-30.166v-88.334q-74.668-10.666-136.332-56.332l-62.332 62.332q-12.666 12.668-30 12.668-17.668 0-30.168-12.5t-12.5-30.168q0-18 12.332-30.332l62.334-62.332q-45.668-61.668-56.332-136.334h-88.332q-17.668 0-30.168-12.5t-12.5-30.168 12.5-30.168 30.168-12.5h88.332q10.668-74.668 56.332-136.332l-62.332-62.332q-12.332-12.332-12.332-30.332 0-17.668 12.5-30.168t30.168-12.5q17.332 0 30 12.668l62.332 62.332q61.668-45.668 136.332-56.332v-88.332q0-17.668 12.5-30.168t30.168-12.5 30.168 12.5 12.5 30.168v88.332q74.668 10.668 136.332 56.332l62.332-62.332q12.668-12.668 30.332-12.668t30.168 12.5 12.5 30.168-12.668 30.332l-62.332 62.332q45.668 61.668 56.332 136.332h88.332q17.668 0 30.168 12.5t12.5 30.168-12.5 30.168-30.168 12.5h-88.332q-10.668 74.668-56.332 136.334l62.332 62.332q12.668 12.668 12.668 30.334t-12.5 30.166-30.168 12.5-30.332-12.666l-62.332-62.334q-61.668 45.668-136.332 56.334v88.332q0 17.668-12.5 30.168t-30.168 12.5zM512 618.668q70.668 0 120.668-50t50-120.668-50-120.668-120.668-50-120.668 50-50 120.668 50 120.668 120.668 50zM512 533.334q-35.332 0-60.332-25t-25-60.334 25-60.332 60.332-25 60.332 25 25 60.332-25 60.334-60.332 25z" />
<glyph unicode="&#xe024;" glyph-name="uniE024" d="M753.332 874.668q69.668 0 128.5-34.332t93.168-93.168 34.332-128.5q0-50-19.168-97.166t-55.832-83.834l-422.334-422.332-422.334 422.334q-36.668 36.668-55.832 83.834t-19.168 97.168q0 69.666 34.332 128.5t93.168 93.166 128.5 34.332q50.332 0 97.168-19t83.832-56l60.332-60.334 60.332 60.334q36.668 36.666 83.832 55.832t97.168 19.166zM753.332 789.334q-33.332 0-64.668-12.666t-56-37.334l-120.668-120.666-120.668 120.666q-24.668 24.668-56 37.334t-64.668 12.666q-46.668 0-85.832-22.832t-62-62-22.832-85.834q0-33.332 12.668-64.666t37.332-56l362-362 362 362q24.668 24.668 37.332 56t12.668 64.666q0 46.668-22.832 85.834t-62 62-85.832 22.832z" />
<glyph unicode="&#xe025;" glyph-name="uniE025" d="M426.666 917.334h384q17.668 0 30.168-12.5t12.5-30.168v-853.332q0-17.668-12.5-30.168t-30.168-12.5-30.168 12.5-12.5 30.168v810.668h-85.332v-810.668q0-17.668-12.5-30.168t-30.168-12.5-30.168 12.5-12.5 30.168v384h-170.668q-69.668 0-128.5 34.332t-93.168 93.168-34.332 128.5 34.332 128.5 93.168 93.166 128.5 34.332zM597.332 490.668v341.334h-170.668q-70.668 0-120.668-50t-50-120.668 50-120.666 120.668-50h170.668z" />
<glyph unicode="&#xe026;" glyph-name="uniE026" d="M128 746.668h768q17.668 0 30.168-12.5t12.5-30.166-12.5-30.168-30.168-12.5h-768q-17.668 0-30.168 12.5t-12.5 30.168 12.5 30.166 30.168 12.5zM128 234.668h768q17.668 0 30.168-12.5t12.5-30.168-12.5-30.168-30.168-12.5h-768q-17.668 0-30.168 12.5t-12.5 30.168 12.5 30.168 30.168 12.5zM128 405.334h768q17.668 0 30.168-12.5t12.5-30.168-12.5-30.168-30.168-12.5h-768q-17.668 0-30.168 12.5t-12.5 30.168 12.5 30.168 30.168 12.5zM128 576h768q17.668 0 30.168-12.5t12.5-30.168-12.5-30.168-30.168-12.5h-768q-17.668 0-30.168 12.5t-12.5 30.168 12.5 30.168 30.168 12.5z" />
<glyph unicode="&#xe027;" glyph-name="uniE027" d="M128 746.668h768q17.668 0 30.168-12.5t12.5-30.166-12.5-30.168-30.168-12.5h-768q-17.668 0-30.168 12.5t-12.5 30.168 12.5 30.166 30.168 12.5zM128 234.668h597.332q17.668 0 30.168-12.5t12.5-30.168-12.5-30.168-30.168-12.5h-597.332q-17.668 0-30.168 12.5t-12.5 30.168 12.5 30.168 30.168 12.5zM128 405.334h768q17.668 0 30.168-12.5t12.5-30.168-12.5-30.168-30.168-12.5h-768q-17.668 0-30.168 12.5t-12.5 30.168 12.5 30.168 30.168 12.5zM128 576h597.332q17.668 0 30.168-12.5t12.5-30.168-12.5-30.168-30.168-12.5h-597.332q-17.668 0-30.168 12.5t-12.5 30.168 12.5 30.168 30.168 12.5z" />
<glyph unicode="&#xe028;" glyph-name="uniE028" d="M128 746.668h768q17.668 0 30.168-12.5t12.5-30.166-12.5-30.168-30.168-12.5h-768q-17.668 0-30.168 12.5t-12.5 30.168 12.5 30.166 30.168 12.5zM213.332 234.668h597.332q17.668 0 30.168-12.5t12.5-30.168-12.5-30.168-30.168-12.5h-597.332q-17.668 0-30.168 12.5t-12.5 30.168 12.5 30.168 30.168 12.5zM128 405.334h768q17.668 0 30.168-12.5t12.5-30.168-12.5-30.168-30.168-12.5h-768q-17.668 0-30.168 12.5t-12.5 30.168 12.5 30.168 30.168 12.5zM213.332 576h597.332q17.668 0 30.168-12.5t12.5-30.168-12.5-30.168-30.168-12.5h-597.332q-17.668 0-30.168 12.5t-12.5 30.168 12.5 30.168 30.168 12.5z" />
<glyph unicode="&#xe029;" glyph-name="uniE029" d="M128 746.668h768q17.668 0 30.168-12.5t12.5-30.166-12.5-30.168-30.168-12.5h-768q-17.668 0-30.168 12.5t-12.5 30.168 12.5 30.166 30.168 12.5zM298.666 234.668h597.334q17.668 0 30.168-12.5t12.5-30.168-12.5-30.168-30.168-12.5h-597.332q-17.668 0-30.168 12.5t-12.5 30.168 12.5 30.168 30.168 12.5zM128 405.334h768q17.668 0 30.168-12.5t12.5-30.168-12.5-30.168-30.168-12.5h-768q-17.668 0-30.168 12.5t-12.5 30.168 12.5 30.168 30.168 12.5zM298.666 576h597.334q17.668 0 30.168-12.5t12.5-30.168-12.5-30.168-30.168-12.5h-597.332q-17.668 0-30.168 12.5t-12.5 30.168 12.5 30.168 30.168 12.5z" />
<glyph unicode="&#xe030;" glyph-name="uniE030" d="M213.332 917.334h682.668v-938.668h-682.668q-53 0-90.5 37.5t-37.5 90.5v682.668q0 53 37.5 90.5t90.5 37.5zM810.668 64v85.332h-597.332q-17.668 0-30.168-12.5t-12.5-30.168 12.5-30.168 30.168-12.5h597.332zM810.668 234.668v597.334h-597.332q-17.668 0-30.168-12.5t-12.5-30.168v-562q21 7.332 42.668 7.332h597.332z" />
<glyph unicode="&#xe031;" glyph-name="uniE031" d="M0 661.334l512 256 512-256-512-256zM512 138.334l416 208.332 96-48-512-256.334-512 256.334 96 48zM512 319.668l416 208 96-48-512-256-512 256 96 48zM833.332 661.334l-321.334 160.668-321.334-160.668 321.334-160.666z" />
<glyph unicode="&#xe032;" glyph-name="uniE032" d="M469.334 917.334h384q53 0 90.5-37.5t37.5-90.5v-384q0-53-37.5-90.5t-90.5-37.5h-170.668v-170.668q0-53-37.5-90.5t-90.5-37.5h-384q-53 0-90.5 37.5t-37.5 90.5v384q0 53 37.5 90.5t90.5 37.5h170.668v170.666q0 53 37.5 90.5t90.5 37.5zM341.334 405.334v128h-170.668q-17.668 0-30.168-12.5t-12.5-30.168v-384q0-17.668 12.5-30.168t30.168-12.5h384q17.668 0 30.168 12.5t12.5 30.168v170.668h-128q-53 0-90.5 37.5t-37.5 90.5zM853.332 832h-384q-17.668 0-30.168-12.5t-12.5-30.168v-384q0-17.668 12.5-30.168t30.168-12.5h384q17.668 0 30.168 12.5t12.5 30.168v384q0 17.668-12.5 30.168t-30.168 12.5z" />
<glyph unicode="&#xe033;" glyph-name="uniE033" d="M384 874.668h426.666q53 0 90.5-37.5t37.5-90.5v-426.668q0-53-37.5-90.5t-90.5-37.5h-426.666q-53 0-90.5 37.5t-37.5 90.5v426.668q0 53 37.5 90.5t90.5 37.5zM170.668 696.668v-547.332q0-17.668 12.5-30.168t30.168-12.5h547.332q-13.332-37.668-46.332-61.5t-74.332-23.832h-426.666q-53 0-90.5 37.5t-37.5 90.5v426.668q0 41.334 23.832 74.334t61.5 46.332zM810.668 789.334h-426.666q-17.666 0-30.166-12.5t-12.5-30.166v-426.668q0-17.668 12.5-30.168t30.168-12.5h426.668q17.668 0 30.168 12.5t12.5 30.168v426.668q0 17.666-12.5 30.166t-30.168 12.5z" />
<glyph unicode="&#xe034;" glyph-name="uniE034" d="M213.332 960h597.332q53 0 90.5-37.5t37.5-90.5v-768q0-53-37.5-90.5t-90.5-37.5h-597.332q-53 0-90.5 37.5t-37.5 90.5v768q0 53 37.5 90.5t90.5 37.5zM341.334 234.668h341.334q17.668 0 30.168-12.5t12.5-30.168-12.5-30.168-30.168-12.5h-341.334q-17.666 0-30.166 12.5t-12.5 30.168 12.5 30.168 30.168 12.5zM341.334 405.334h341.334q17.668 0 30.168-12.5t12.5-30.168-12.5-30.168-30.168-12.5h-341.334q-17.666 0-30.166 12.5t-12.5 30.168 12.5 30.168 30.168 12.5zM810.668 874.668h-597.332q-17.668 0-30.168-12.5t-12.5-30.166v-768q0-17.668 12.5-30.168t30.168-12.5h597.332q17.668 0 30.168 12.5t12.5 30.168v768q0 17.666-12.5 30.166t-30.168 12.5zM341.334 576h341.334q17.668 0 30.168-12.5t12.5-30.168-12.5-30.168-30.168-12.5h-341.334q-17.666 0-30.166 12.5t-12.5 30.168 12.5 30.168 30.168 12.5zM341.334 746.668h170.666q17.668 0 30.168-12.5t12.5-30.166-12.5-30.168-30.168-12.5h-170.668q-17.668 0-30.168 12.5t-12.5 30.168 12.5 30.166 30.168 12.5z" />
<glyph unicode="&#xe035;" glyph-name="uniE035" d="M384 960h426.666q53 0 90.5-37.5t37.5-90.5v-597.334q0-53-37.5-90.5t-90.5-37.5h-426.666q-53 0-90.5 37.5t-37.5 90.5v597.334q0 53 37.5 90.5t90.5 37.5zM170.668 782v-718q0-17.668 12.5-30.168t30.168-12.5h547.332q-13.332-37.668-46.332-61.5t-74.332-23.832h-426.666q-53 0-90.5 37.5t-37.5 90.5v597.332q0 41.334 23.832 74.334t61.5 46.332zM810.668 874.668h-426.666q-17.666 0-30.166-12.5t-12.5-30.166v-597.334q0-17.668 12.5-30.168t30.168-12.5h426.668q17.668 0 30.168 12.5t12.5 30.168v597.334q0 17.666-12.5 30.166t-30.168 12.5z" />
<glyph unicode="&#xe036;" glyph-name="uniE036" d="M426.666 917.334q78 0 149.166-30.5t122.5-81.832 81.832-122.5 30.5-149.168q0-67-21.832-128.334t-62.168-111.332l242.332-242q12.332-12.332 12.332-30.332 0-18.332-12.168-30.5t-30.5-12.168q-18 0-30.332 12.332l-242 242.332q-50-40.332-111.332-62.168t-128.332-21.832q-78 0-149.168 30.5t-122.5 81.832-81.832 122.5-30.5 149.168 30.5 149.168 81.832 122.5 122.5 81.832 149.168 30.5zM426.666 832q-60.666 0-116-23.668t-95.332-63.666-63.668-95.334-23.668-116 23.668-116 63.668-95.332 95.332-63.668 116-23.668 116 23.668 95.332 63.668 63.668 95.332 23.668 116-23.668 116-63.668 95.334-95.332 63.666-116 23.668z" />
<glyph unicode="&#xe037;" glyph-name="uniE037" d="M426.666 917.334q78 0 149.166-30.5t122.5-81.832 81.832-122.5 30.5-149.168q0-67-21.832-128.334t-62.168-111.332l242.332-242q12.332-12.332 12.332-30.332 0-18.332-12.168-30.5t-30.5-12.168q-18 0-30.332 12.332l-242 242.332q-50-40.332-111.332-62.168t-128.332-21.832q-78 0-149.168 30.5t-122.5 81.832-81.832 122.5-30.5 149.168 30.5 149.168 81.832 122.5 122.5 81.832 149.168 30.5zM426.666 832q-60.666 0-116-23.668t-95.332-63.666-63.668-95.334-23.668-116 23.668-116 63.668-95.332 95.332-63.668 116-23.668 116 23.668 95.332 63.668 63.668 95.332 23.668 116-23.668 116-63.668 95.334-95.332 63.666-116 23.668zM426.666 704q17.666 0 30.166-12.5t12.5-30.168v-85.332h85.332q17.668 0 30.168-12.5t12.5-30.168-12.5-30.168-30.168-12.5h-85.332v-85.334q0-17.668-12.5-30.168t-30.168-12.5-30.168 12.5-12.5 30.168v85.334h-85.332q-17.668 0-30.168 12.5t-12.5 30.168 12.5 30.168 30.168 12.5h85.332v85.332q0 17.668 12.5 30.168t30.168 12.5z" />
<glyph unicode="&#xe038;" glyph-name="uniE038" d="M426.666 917.334q78 0 149.166-30.5t122.5-81.832 81.832-122.5 30.5-149.168q0-67-21.832-128.334t-62.168-111.332l242.332-242q12.332-12.332 12.332-30.332 0-18.332-12.168-30.5t-30.5-12.168q-18 0-30.332 12.332l-242 242.332q-50-40.332-111.332-62.168t-128.332-21.832q-78 0-149.168 30.5t-122.5 81.832-81.832 122.5-30.5 149.168 30.5 149.168 81.832 122.5 122.5 81.832 149.168 30.5zM426.666 832q-60.666 0-116-23.668t-95.332-63.666-63.668-95.334-23.668-116 23.668-116 63.668-95.332 95.332-63.668 116-23.668 116 23.668 95.332 63.668 63.668 95.332 23.668 116-23.668 116-63.668 95.334-95.332 63.666-116 23.668zM298.666 576h256q17.668 0 30.168-12.5t12.5-30.168-12.5-30.168-30.168-12.5h-256q-17.668 0-30.168 12.5t-12.5 30.168 12.5 30.168 30.168 12.5z" />
<glyph unicode="&#xe039;" glyph-name="uniE039" d="M356.666 805q17.334 0 30-12.5t12.666-30.168-12.666-30.332l-198.668-198.668h409.332q78 0 149.168-30.332t122.5-81.834 81.832-122.5 30.5-149.332v-42.668q0-17.668-12.5-30.168t-30.168-12.5q-17.332 0-30 12.668t-12.668 30v42.668q0 60.668-23.668 116t-63.668 95.332-95.332 63.668-116 23.668h-409.334l198.666-199q12.666-12.668 12.666-30 0-17.668-12.5-30.332t-30.166-12.668-30.332 12.668l-271.334 271.668q-12.332 12.334-12.332 30.334 0 17.668 12.332 30l271.334 271.666q12.666 12.666 30.332 12.666z" />
<glyph unicode="&#xe040;" glyph-name="uniE040" d="M512 917.334q95.668 0 182.5-37.168t149.668-100 100-149.666 37.168-182.5-37.168-182.5-100-149.668-149.668-100-182.5-37.168-182.5 37.168-149.668 100-100 149.668-37.168 182.5 37.168 182.5 100 149.666 149.668 100 182.5 37.168zM512 832q-78 0-149.168-30.5t-122.5-81.834-81.832-122.5-30.5-149.168 30.5-149.168 81.832-122.5 122.5-81.832 149.168-30.5 149.168 30.5 122.5 81.832 81.832 122.5 30.5 149.168-30.5 149.168-81.832 122.5-122.5 81.834-149.168 30.5zM512 661.334q17.668 0 30.168-12.5t12.5-30.168v-128h128q17.668 0 30.168-12.5t12.5-30.168-12.5-30.168-30.168-12.5h-128v-128q0-17.668-12.5-30.168t-30.168-12.5-30.168 12.5-12.5 30.168v128h-128q-17.668 0-30.168 12.5t-12.5 30.168 12.5 30.168 30.168 12.5h128v128q0 17.668 12.5 30.168t30.168 12.5z" />
<glyph unicode="&#xe041;" glyph-name="uniE041" d="M512 917.334q95.668 0 182.5-37.168t149.668-100 100-149.666 37.168-182.5-37.168-182.5-100-149.668-149.668-100-182.5-37.168-182.5 37.168-149.668 100-100 149.668-37.168 182.5 37.168 182.5 100 149.666 149.668 100 182.5 37.168zM512 832q-78 0-149.168-30.5t-122.5-81.834-81.832-122.5-30.5-149.168 30.5-149.168 81.832-122.5 122.5-81.832 149.168-30.5 149.168 30.5 122.5 81.832 81.832 122.5 30.5 149.168-30.5 149.168-81.832 122.5-122.5 81.834-149.168 30.5zM341.334 490.668h341.334q17.668 0 30.168-12.5t12.5-30.168-12.5-30.168-30.168-12.5h-341.334q-17.666 0-30.166 12.5t-12.5 30.168 12.5 30.168 30.168 12.5z" />
<glyph unicode="&#xe042;" glyph-name="uniE042" d="M512 917.334q95.668 0 182.5-37.168t149.668-100 100-149.666 37.168-182.5-37.168-182.5-100-149.668-149.668-100-182.5-37.168-182.5 37.168-149.668 100-100 149.668-37.168 182.5 37.168 182.5 100 149.666 149.668 100 182.5 37.168zM512 832q-78 0-149.168-30.5t-122.5-81.834-81.832-122.5-30.5-149.168 30.5-149.168 81.832-122.5 122.5-81.832 149.168-30.5 149.168 30.5 122.5 81.832 81.832 122.5 30.5 149.168-30.5 149.168-81.832 122.5-122.5 81.834-149.168 30.5zM655.668 576.334q17.668 0 30.168-12.5t12.5-30.168-12.668-30.332l-181-181q-12.334-12.332-30-12.332-18 0-30.332 12.332l-90.668 90.332q-12.334 12.332-12.334 30.332 0 17.668 12.5 30.168t30.166 12.5 30.332-12.666l60.332-60.334 150.668 151q12.668 12.668 30.332 12.668z" />
<glyph unicode="&#xe043;" glyph-name="uniE043" d="M512 917.334q95.668 0 182.5-37.168t149.668-100 100-149.666 37.168-182.5-37.168-182.5-100-149.668-149.668-100-182.5-37.168-182.5 37.168-149.668 100-100 149.668-37.168 182.5 37.168 182.5 100 149.666 149.668 100 182.5 37.168zM512 832q-78 0-149.168-30.5t-122.5-81.834-81.832-122.5-30.5-149.168 30.5-149.168 81.832-122.5 122.5-81.832 149.168-30.5 149.168 30.5 122.5 81.832 81.832 122.5 30.5 149.168-30.5 149.168-81.832 122.5-122.5 81.834-149.168 30.5zM632.668 611.668q17.668 0 30.332-12.5t12.668-30.166-12.668-30.334l-90.668-90.668 90.668-90.332q12.668-12.668 12.668-30 0-17.668-12.668-30.168t-30.332-12.5-30 12.332l-90.668 90.332-90.332-90.332q-12.334-12.332-30.332-12.332-17.668 0-30.168 12.332t-12.5 30q0 18 12.334 30.332l90.666 90.332-90.668 90.668q-12.334 12.332-12.334 30t12.5 30.332 30.166 12.668 30.332-12.668l90.332-90.666 90.668 90.666q12.668 12.668 30 12.668z" />
<glyph unicode="&#xe044;" glyph-name="uniE044" d="M170.668 917.334h682.668q53 0 90.5-37.5t37.5-90.5v-682.668q0-53-37.5-90.5t-90.5-37.5h-682.668q-53 0-90.5 37.5t-37.5 90.5v682.668q0 53 37.5 90.5t90.5 37.5zM853.332 832h-682.668q-17.668 0-30.168-12.5t-12.5-30.168v-682.668q0-17.668 12.5-30.168t30.168-12.5h682.668q17.668 0 30.168 12.5t12.5 30.168v682.668q0 17.668-12.5 30.168t-30.168 12.5zM512 661.334q17.668 0 30.168-12.5t12.5-30.168v-128h128q17.668 0 30.168-12.5t12.5-30.168-12.5-30.168-30.168-12.5h-128v-128q0-17.668-12.5-30.168t-30.168-12.5-30.168 12.5-12.5 30.168v128h-128q-17.668 0-30.168 12.5t-12.5 30.168 12.5 30.168 30.168 12.5h128v128q0 17.668 12.5 30.168t30.168 12.5z" />
<glyph unicode="&#xe045;" glyph-name="uniE045" d="M170.668 917.334h682.668q53 0 90.5-37.5t37.5-90.5v-682.668q0-53-37.5-90.5t-90.5-37.5h-682.668q-53 0-90.5 37.5t-37.5 90.5v682.668q0 53 37.5 90.5t90.5 37.5zM853.332 832h-682.668q-17.668 0-30.168-12.5t-12.5-30.168v-682.668q0-17.668 12.5-30.168t30.168-12.5h682.668q17.668 0 30.168 12.5t12.5 30.168v682.668q0 17.668-12.5 30.168t-30.168 12.5zM341.334 490.668h341.334q17.668 0 30.168-12.5t12.5-30.168-12.5-30.168-30.168-12.5h-341.334q-17.666 0-30.166 12.5t-12.5 30.168 12.5 30.168 30.168 12.5z" />
<glyph unicode="&#xe046;" glyph-name="uniE046" d="M170.668 917.334h682.668q53 0 90.5-37.5t37.5-90.5v-682.668q0-53-37.5-90.5t-90.5-37.5h-682.668q-53 0-90.5 37.5t-37.5 90.5v682.668q0 53 37.5 90.5t90.5 37.5zM853.332 832h-682.668q-17.668 0-30.168-12.5t-12.5-30.168v-682.668q0-17.668 12.5-30.168t30.168-12.5h682.668q17.668 0 30.168 12.5t12.5 30.168v682.668q0 17.668-12.5 30.168t-30.168 12.5zM682.668 596.334q17.332 0 30-12.5t12.668-30.168-12.668-30.332l-211-211q-12.334-12.332-30-12.332-18 0-30.332 12.332l-120.668 120.668q-12.334 12.332-12.334 30.332 0 17.668 12.5 30.168t30.166 12.5q17.332 0 30-12.666l90.332-90.668 181 181q12.668 12.666 30.332 12.666z" />
<glyph unicode="&#xe047;" glyph-name="uniE047" d="M170.668 917.334h682.668q53 0 90.5-37.5t37.5-90.5v-682.668q0-53-37.5-90.5t-90.5-37.5h-682.668q-53 0-90.5 37.5t-37.5 90.5v682.668q0 53 37.5 90.5t90.5 37.5zM853.332 832h-682.668q-17.668 0-30.168-12.5t-12.5-30.168v-682.668q0-17.668 12.5-30.168t30.168-12.5h682.668q17.668 0 30.168 12.5t12.5 30.168v682.668q0 17.668-12.5 30.168t-30.168 12.5zM632.668 611.668q17.668 0 30.332-12.666t12.668-30.334-12.668-30.332l-90.668-90.334 90.668-90.332q12.668-12.668 12.668-30.332t-12.668-30.168-30.332-12.5-30 12.332l-90.668 90.668-90.668-90.668q-12-12.332-30-12.332-18.332 0-30.5 12.168t-12.166 30.5q0 18 12.334 30.332l90.668 90.332-90.668 90.334q-12.334 12.332-12.334 30.332 0 17.668 12.5 30.334t30.166 12.666q18 0 30-12.666l90.668-90.668 90.668 90.668q12.668 12.666 30 12.666z" />
<glyph unicode="&#xe048;" glyph-name="uniE048" d="M810.668 576q17.668 0 30.168-12.5t12.5-30.168v-85.334q0-64-23.168-123.168t-63-103.668-95-74.332-117.5-37.5v-88h128q17.668 0 30.168-12.5t12.5-30.168-12.5-30.168-30.168-12.5h-341.334q-17.666 0-30.166 12.5t-12.5 30.166 12.5 30.168 30.168 12.5h128v88q-62.332 7.668-117.5 37.5t-95 74.332-63 103.668-23.168 123.168v85.334q0 17.666 12.5 30.166t30.168 12.5 30.168-12.5 12.5-30.166v-85.334q0-69.668 34.332-128.5t93.168-93.168 128.5-34.332 128.5 34.332 93.168 93.168 34.332 128.5v85.334q0 17.666 12.5 30.166t30.168 12.5zM512 960q70.668 0 120.668-50t50-120.668v-341.332q0-70.668-50-120.668t-120.668-50-120.668 50-50 120.668v341.334q0 70.668 50 120.668t120.668 50zM512 874.668q-35.332 0-60.332-25t-25-60.332v-341.334q0-35.332 25-60.332t60.332-25 60.332 25 25 60.332v341.334q0 35.332-25 60.332t-60.332 25z" />
<glyph unicode="&#xe049;" glyph-name="uniE049" d="M512 832q78 0 149.168-30.5t122.5-81.834 81.832-122.5 30.5-149.168-30.5-149.168-81.832-122.5-122.5-81.832-149.168-30.5-149.168 30.5-122.5 81.832-81.832 122.5-30.5 149.168 30.5 149.168 81.832 122.5 122.5 81.834 149.168 30.5zM512 746.668q-60.668 0-116-23.666t-95.332-63.668-63.668-95.332-23.668-116 23.668-116 63.668-95.332 95.332-63.668 116-23.668 116 23.668 95.332 63.668 63.668 95.332 23.668 116-23.668 116-63.668 95.332-95.332 63.668-116 23.668z" />
<glyph unicode="&#xe050;" glyph-name="uniE050" d="M725.332 789.334q17.668 0 30.168-12.5t12.5-30.166q0-18-12.332-30.334l-268.666-268.332 268.666-268.666q12.332-12.332 12.332-30.332 0-17.668-12.5-30t-30.168-12.332q-18 0-30.332 12.332l-298.666 298.668q-12.334 13-12.334 30.332 0 17 12.334 30l298.666 298.666q12.668 12.668 30.332 12.668zM256 789.334q17.668 0 30.168-12.5t12.5-30.166v-597.332q0-17.668-12.5-30.168t-30.168-12.5-30.168 12.5-12.5 30.168v597.332q0 17.668 12.5 30.168t30.168 12.5z" />
<glyph unicode="&#xe051;" glyph-name="uniE051" d="M768 789.334q17.668 0 30.168-12.5t12.5-30.166-12.668-30.334l-268.334-268.332 268.334-268.334q12.668-12.668 12.668-30.332t-12.5-30.168-30.168-12.5q-18 0-30.332 12.332l-298.666 298.668q-12.334 12.332-12.334 30.332t12.334 30.334l298.666 298.666q12.332 12.332 30.332 12.332zM512 789.334q17.668 0 30.168-12.5t12.5-30.166-12.668-30.334l-268.334-268.332 268.334-268.334q12.668-12.668 12.668-30.332t-12.5-30.168-30.168-12.5q-18 0-30.332 12.332l-298.666 298.668q-12.332 12.332-12.332 30.332t12.332 30.334l298.666 298.666q12.334 12.332 30.332 12.332z" />
<glyph unicode="&#xe052;" glyph-name="uniE052" d="M170.668 64v768l640-384zM644.668 448l-388.666 233.332v-466.668z" />
<glyph unicode="&#xe053;" glyph-name="uniE053" d="M682.668 832q53 0 90.5-37.5t37.5-90.5v-512q0-53-37.5-90.5t-90.5-37.5-90.5 37.5-37.5 90.5v512q0 53 37.5 90.5t90.5 37.5zM341.334 832q53 0 90.5-37.5t37.5-90.5v-512q0-53-37.5-90.5t-90.5-37.5-90.5 37.5-37.5 90.5v512q0 53 37.5 90.5t90.5 37.5zM341.334 746.668q-17.666 0-30.166-12.5t-12.5-30.166v-512q0-17.668 12.5-30.168t30.168-12.5 30.168 12.5 12.5 30.168v512q0 17.666-12.5 30.166t-30.168 12.5zM682.668 746.668q-17.668 0-30.168-12.5t-12.5-30.166v-512q0-17.668 12.5-30.168t30.168-12.5 30.168 12.5 12.5 30.168v512q0 17.666-12.5 30.166t-30.168 12.5z" />
<glyph unicode="&#xe054;" glyph-name="uniE054" d="M256 832h512q53 0 90.5-37.5t37.5-90.5v-512q0-53-37.5-90.5t-90.5-37.5h-512q-53 0-90.5 37.5t-37.5 90.5v512q0 53 37.5 90.5t90.5 37.5zM768 746.668h-512q-17.668 0-30.168-12.5t-12.5-30.166v-512q0-17.668 12.5-30.168t30.168-12.5h512q17.668 0 30.168 12.5t12.5 30.168v512q0 17.666-12.5 30.166t-30.168 12.5z" />
<glyph unicode="&#xe055;" glyph-name="uniE055" d="M469.334 789.334q17.666 0 30-12.332l298.666-298.668q12.668-12.668 12.668-30.334t-12.668-30.332l-298.666-298.668q-12.334-12.332-30-12.332t-30.166 12.5-12.5 30.168q0 18 12.334 30.332l268.334 268.334-268.334 268.334q-12.334 12.332-12.334 30.332 0 18.334 12.166 30.5t30.5 12.168zM213.332 789.334q17.668 0 30-12.332l298.668-298.668q12.668-12.668 12.668-30.334t-12.668-30.332l-298.666-298.668q-12.332-12.332-30-12.332t-30.168 12.5-12.5 30.168q0 18 12.332 30.332l268.334 268.334-268.334 268.334q-12.332 12.332-12.332 30.332 0 18.334 12.168 30.5t30.5 12.168z" />
<glyph unicode="&#xe056;" glyph-name="uniE056" d="M256 789.334q17.668 0 30.332-12.666l298.668-298.666q12.332-12.334 12.332-30 0-18-12.332-30.332l-298.666-298.668q-12.334-12.332-30.334-12.332-17.668 0-30.168 12.332t-12.5 30q0 17.332 12.332 30.332l268.666 268.668-268.666 268.334q-12.332 13-12.332 30.332 0 17.668 12.5 30.168t30.168 12.5zM725.332 789.334q17.668 0 30.168-12.5t12.5-30.166v-597.332q0-17.668-12.5-30.168t-30.168-12.5-30.168 12.5-12.5 30.168v597.332q0 17.668 12.5 30.168t30.168 12.5z" />
<glyph unicode="&#xe057;" glyph-name="uniE057" d="M768 960q17.668 0 30.332-12.666l170.668-170.668q12.332-12.334 12.332-30 0-18-12.332-30.334l-170.668-170.666q-12.332-12.334-30.332-12.334-17.668 0-30.168 12.5t-12.5 30.168q0 17 12.332 30l98 98h-67.668q-60 0-112.668-26.168t-88.332-71.5q-55-70-55-158.332 0-89-42.668-165.332-22.668-41-55-73.668-47.332-48.332-110.332-75.332t-133.332-27h-85.332q-17.668 0-30.168 12.5t-12.5 30.168 12.5 30.168 30.168 12.5h85.332q60.332 0 112.832 26t88.168 71.332q55 70 55 158.668 0 89 42.668 165.334 23 41.332 55 73.332 47.332 48.334 110.332 75.5t133.332 27.168h67.668l-98 97.668q-12.332 13-12.332 30.332 0 17.668 12.5 30.168t30.168 12.5zM768 362.668q17.668 0 30.332-12.668l170.668-170.668q12.332-12.332 12.332-30.332 0-17.668-12.332-30l-170.668-170.668q-12.332-12.332-30.332-12.332-17.668 0-30.168 12.332t-12.5 30q0 17.332 12.332 30.332l98 98h-67.668q-70.332 0-133.332 27t-110.332 75.332q25.668 37.668 42.668 80.332 35.668-45.332 88.168-71.332t112.832-26h67.668l-98 97.668q-12.332 13-12.332 30.332 0 17.668 12.5 30.168t30.168 12.5zM85.332 789.334h85.332q70.332 0 133.334-27.166t110.332-75.5q-26-38.334-42.668-80.334-35.668 45.334-88.332 71.5t-112.668 26.168h-85.332q-17.668 0-30.168 12.5t-12.5 30.166 12.5 30.168 30.168 12.5z" />
<glyph unicode="&#xe058;" glyph-name="uniE058" d="M42.668 405.334h256q17.668 0 30.168-12.5t12.5-30.168-12.5-30.168-30.168-12.5h-144l116-113.332q49.332-49.668 113-75 61-25 128.332-25t128.332 25q33.332 13.668 62.5 33.5t49.668 40.668 37.332 44.668 27 43.832 17.168 40q6 16.668 22 24.168t32.332 1.832q16.668-6 24.168-21.832t1.832-32.168q-14-42.668-40.668-84.668t-60-75.332q-61.332-61.332-141-93.668-77.332-31.332-160.668-31.332-83 0-160.668 31.332-79.668 32.332-141 93.668l-125 122.332v-162q0-17.668-12.5-30.168t-30.168-12.5-30.168 12.5-12.5 30.168v256q0 17.668 12.5 30.168t30.168 12.5zM512 874.668q83 0 160.668-31.332 79.668-32.332 141-93.668l0.668-0.666 124.332-121.668v162q0 17.668 12.5 30.168t30.168 12.5 30.168-12.5 12.5-30.168v-256q0-17.668-12.5-30.168t-30.168-12.5h-256q-17.668 0-30.168 12.5t-12.5 30.168 12.5 30.168 30.168 12.5h144l-116 113.332q-48.668 48.668-110.832 74.334t-130.5 25.666q-67.332 0-128.332-25-63.668-25.332-113-75-20-17.666-43.832-53.832t-36.832-73.834q-6-16.666-22-24.166t-32.332-1.834q-16.668 6-24.168 21.834t-1.832 32.166q14 42.668 40.668 84.668t60 75.332q61.332 61.334 141 93.668 77.668 31.332 160.668 31.332z" />
<glyph unicode="&#xe059;" glyph-name="uniE059" d="M170.668 874.668h213.332l85.332-128h384q53 0 90.5-37.5t37.5-90.5v-469.332q0-53-37.5-90.5t-90.5-37.5h-682.668q-53 0-90.5 37.5t-37.5 90.5v597.332q0 53 37.5 90.5t90.5 37.5zM423.666 661.334l-82.334 128h-170.668q-17.668 0-30.168-12.5t-12.5-30.168v-597.332q0-17.668 12.5-30.168t30.168-12.5h682.668q17.668 0 30.168 12.5t12.5 30.168v469.334q0 17.668-12.5 30.168t-30.168 12.5h-429.666z" />
<glyph unicode="&#xe060;" glyph-name="uniE060" d="M512 917.334q75 0 145.832-21t130-59.668 106.668-91.168 79-117.832 43.5-137q7-41.334 7-85.334h-469.334v-256q0-35.332 25-60.332t60.332-25 60.332 25 25 60.332q0 17.668 12.5 30.168t30.168 12.5 30.168-12.5 12.5-30.168q0-70.668-50-120.668t-120.668-50-120.668 50-50 120.668v256h-469.334q0 44 7 85.334 12 71.666 43.5 137t79 117.832 106.668 91.168 130 59.666 145.832 21zM512 832q-101.332 0-190.332-44.668t-148.5-122.332-79.168-174.334h836q-19.668 96.668-79.168 174.334t-148.5 122.332-190.332 44.668z" />
<glyph unicode="&#xe061;" glyph-name="uniE061" d="M512 874.668q14.332 0 28.332-1-28.332-61-28.332-127 0-60.666 23.668-116t63.668-95.332 95.332-63.668 116-23.668q66 0 127 28.334 1-14 1-28.334 0-58-15.332-113.332t-42.832-102.168-66.832-86.168-86.168-66.832-102.168-42.832-113.332-15.332-113.332 15.332-102.168 42.832-86.168 66.832-66.832 86.168-42.832 102.168-15.332 113.332 15.332 113.332 42.832 102.168 66.832 86.166 86.168 66.834 102.168 42.832 113.332 15.332zM428 779q-55-14-102.5-45.334t-81.668-74.332-53.668-97.832-19.5-113.5q0-69.332 27-132.5t72.834-109 109-72.832 132.5-27q58.668 0 113.5 19.5t97.832 53.668 74.332 81.668 45.332 102.5q-14.332-1.332-32.332-1.332-78 0-149 30.5t-122.5 82-82 122.5-30.5 149q0 18 1.334 32.332z" />
<glyph unicode="&#xe062;" glyph-name="uniE062" d="M490.666 960q61.666 0 105.5-43.832t43.832-105.5v-459q39.668-33 62.5-80.168t22.832-100.832q0-47.668-18.5-91.168t-50-75-75-50-91.168-18.5-91.168 18.5-75 50-50 75-18.5 91.168q0 53.668 22.832 100.832t62.5 80.168v459q0 61.668 43.832 105.5t105.5 43.834zM490.666 874.668q-26.666 0-45.334-18.668t-18.668-45.332v-505.334q-38.332-18.332-61.832-54.5t-23.5-80.168q0-61.668 43.832-105.5t105.5-43.832 105.5 43.832 43.832 105.5q0 44-23.5 80.168t-61.832 54.5v505.334q0 26.666-18.668 45.332t-45.332 18.668z" />
<glyph unicode="&#xe063;" glyph-name="uniE063" d="M240.332 634.334l271.668 271.666 271.666-271.666q55.332-55.332 83.832-126t28.5-145.668q0-75.332-28.5-145.668t-83.832-125.668-126-84-145.668-28.668-145.668 28.668-126 84q-55 55.332-83.668 125.832t-28.668 145.5 28.668 145.668 83.668 126zM723.332 574l-211.332 211.332-211.332-211.332q-42.668-43-65-98t-22.332-113.334 22.168-113.168 65.166-97.832 98-65.332 113.332-22.332q58.668 0 113.5 22.332t97.832 65.332 65.168 97.668 22.168 113.332q0 58.332-22.168 113.334t-65.168 98z" />
<glyph unicode="&#xe064;" glyph-name="uniE064" d="M512 704q69.668 0 128.5-34.334t93.168-93.166 34.332-128.5-34.332-128.5-93.168-93.168-128.5-34.332-128.5 34.332-93.168 93.168-34.332 128.5 34.332 128.5 93.168 93.166 128.5 34.334zM240.668 219.334q17.668 0 30.168-12.668t12.5-30.332q0-17.332-12.666-30l-60.332-60.332q-12.668-12.668-30-12.668-17.668 0-30.168 12.5t-12.5 30.168q0 18 12.332 30.332l60.332 60.332q12.668 12.668 30.332 12.668zM512 106.668q17.668 0 30.168-12.5t12.5-30.168v-85.332q0-17.668-12.5-30.166t-30.168-12.5-30.168 12.5-12.5 30.166v85.332q0 17.668 12.5 30.168t30.168 12.5zM42.668 490.668h85.332q17.668 0 30.168-12.5t12.5-30.168-12.5-30.168-30.168-12.5h-85.332q-17.668 0-30.168 12.5t-12.5 30.168 12.5 30.168 30.168 12.5zM512 618.668q-70.668 0-120.668-50t-50-120.668 50-120.668 120.668-50 120.668 50 50 120.668-50 120.668-120.668 50zM783.668 219.334q17.332 0 30-12.668l60.332-60.332q12.668-12.668 12.668-30.332 0-17.332-12.668-30t-30-12.668q-17.668 0-30.332 12.668l-60.332 60.332q-12.332 12.332-12.332 30t12.5 30.332 30.168 12.668zM180.332 822.668q17.332 0 30-12.666l60.332-60.334q12.666-12.666 12.666-30 0-17.666-12.5-30.166t-30.168-12.5q-18 0-30.332 12.332l-60.332 60.332q-12.332 12.334-12.332 30.334 0 17.666 12.5 30.166t30.168 12.5zM512 960q17.668 0 30.168-12.5t12.5-30.166v-85.332q0-17.668-12.5-30.168t-30.168-12.5-30.168 12.5-12.5 30.168v85.332q0 17.666 12.5 30.166t30.168 12.5zM896 490.668h85.332q17.668 0 30.168-12.5t12.5-30.168-12.5-30.168-30.168-12.5h-85.332q-17.668 0-30.168 12.5t-12.5 30.168 12.5 30.168 30.168 12.5zM844 822.668q17.332 0 30-12.666t12.668-30q0-17.668-12.668-30.334l-60.332-60.332q-12.332-12.332-30-12.332-18.332 0-30.5 12.166t-12.168 30.5q0 17.666 12.332 30l60.332 60.332q12.668 12.668 30.332 12.668z" />
<glyph unicode="&#xe065;" glyph-name="uniE065" d="M640 832q78 0 149.168-30.5t122.5-81.834 81.832-122.5 30.5-149.168-30.5-149.168-81.832-122.5-122.5-81.832-149.168-30.5h-384q-69.668 0-128.5 34.332t-93.168 93.168-34.332 128.5 34.332 128.5 93.168 93.168 128.5 34.334h22q26.332 74.332 79.332 132.166t126.832 90.834 155.832 33zM640 746.668q-55.332 0-106.5-19.832t-90-53.832-65-81.334-33.832-101h-88.668q-70.668 0-120.668-50t-50-120.668 50-120.668 120.668-50h384q60.668 0 116 23.668t95.332 63.668 63.668 95.332 23.668 116-23.668 116-63.668 95.332-95.332 63.668-116 23.668z" />
<glyph unicode="&#xe066;" glyph-name="uniE066" d="M640 874.668q78 0 149.168-30.5t122.5-81.832 81.832-122.5 30.5-149.166q0-72.668-26.5-139.668t-72-117.332-108.668-83.5-134.168-41.168v86q71.668 10.332 130.168 51.832t92.168 105.668 33.668 138.168q0 60.668-23.668 116t-63.668 95.334-95.332 63.666-116 23.668q-55.332 0-106.5-19.832t-90-53.834-65-81.332-33.832-101h-88.668q-70.668 0-120.668-50t-50-120.668q0-38.668 15.168-71.668t39.832-54.168 54.832-33 60.832-11.832h170.668v-85.332h-170.668q-69.668 0-128.5 34.332t-93.168 93.168-34.332 128.5 34.332 128.5 93.168 93.168 128.5 34.332h22q26.332 74.334 79.332 132.168t126.832 90.832 155.832 33zM554.668 533.334q17.668 0 30.332-12.666l128-128q12.332-12.332 12.332-30 0-18.332-12.168-30.5t-30.5-12.168q-18 0-30.332 12.332l-55 55.332v-281q0-17.668-12.5-30.168t-30.168-12.5-30.168 12.5-12.5 30.168v281l-55-55.332q-12.334-12.332-30.332-12.332-17.668 0-30.168 12.5t-12.5 30.168q0 17 12.334 30l128 128q12.668 12.666 30.332 12.666z" />
<glyph unicode="&#xe067;" glyph-name="uniE067" d="M640 874.668q78 0 149.168-30.5t122.5-81.832 81.832-122.5 30.5-149.166q0-85-35-160.668t-96.668-129.168-140-77.5l21 20.668q18 18.332 28 42.668 9.332 22.668 9.332 49.332 0 6.668-0.332 9.332 59.332 41.332 93.832 105.832t34.5 139.5q0 60.666-23.668 116t-63.668 95.332-95.332 63.668-116 23.668q-55.332 0-106.5-19.834t-90-53.832-65-81.334-33.832-101h-88.668q-70.668 0-120.668-50t-50-120.668q0-38.668 15.168-71.668t39.832-54.168 54.832-33 60.832-11.832h50q11.666-29.332 30-48l37.668-37.332h-117.668q-69.668 0-128.5 34.332t-93.168 93.168-34.332 128.5 34.332 128.5 93.168 93.166 128.5 34.334h22q26.332 74.332 79.332 132.166t126.832 90.834 155.832 33zM554.668 533.334q17.668 0 30.168-12.5t12.5-30.166v-281l55 55.332q12.332 12.332 30.332 12.332 18.332 0 30.5-12.168t12.168-30.5q0-18-12.332-30.332l-128-128q-12.332-12.332-30.332-12.332t-30.332 12.332l-128 128q-12.334 13-12.334 30.332 0 17.668 12.5 30.168t30.166 12.5q18 0 30.332-12.332l55-55.332v281q0 17.668 12.5 30.168t30.168 12.5z" />
<glyph unicode="&#xe068;" glyph-name="uniE068" d="M213.332 960h597.332q53 0 90.5-37.5t37.5-90.5v-597.334q0-53-37.5-90.5t-90.5-37.5h-170.668v85.332h170.668q17.668 0 30.168 12.5t12.5 30.168v597.334q0 17.666-12.5 30.166t-30.168 12.5h-597.332q-17.668 0-30.168-12.5t-12.5-30.166v-597.334q0-17.668 12.5-30.168t30.168-12.5h170.668v-85.332h-170.668q-53 0-90.5 37.5t-37.5 90.5v597.334q0 53 37.5 90.5t90.5 37.5zM512 661.334q18 0 30.332-12.332l170.668-170.668q12.332-12.334 12.332-30.334 0-17.668-12.5-30.168t-30.168-12.5q-17.332 0-30.332 12.332l-97.668 98v-537q0-17.668-12.5-30.168t-30.168-12.5-30.168 12.5-12.5 30.166v537l-97.668-98q-13-12.332-30.332-12.332-17.668 0-30.168 12.5t-12.5 30.168q0 17.332 12.334 30.334l170.666 170.666q12.334 12.334 30.332 12.334z" />
<glyph unicode="&#xe069;" glyph-name="uniE069" d="M640 789.334h170.668q53 0 90.5-37.5t37.5-90.5v-597.332q0-53-37.5-90.5t-90.5-37.5h-597.332q-53 0-90.5 37.5t-37.5 90.5v597.332q0 53 37.5 90.5t90.5 37.5h170.668v-85.332h-170.668q-17.668 0-30.168-12.5t-12.5-30.168v-597.332q0-17.668 12.5-30.168t30.168-12.5h597.332q17.668 0 30.168 12.5t12.5 30.168v597.332q0 17.668-12.5 30.168t-30.168 12.5h-170.668v85.332zM512 960q17.668 0 30.168-12.5t12.5-30.166v-537l97.668 98q12.332 12.334 30.332 12.334 18.332 0 30.5-12.166t12.168-30.5q0-18-12.332-30.332l-170.668-170.668q-12.332-12.332-30.332-12.332t-30.332 12.332l-170.668 170.668q-12.334 13-12.334 30.332 0 17.668 12.5 30.168t30.166 12.5q18 0 30.332-12.334l97.668-98v537q0 17.668 12.5 30.168t30.168 12.5z" />
<glyph unicode="&#xe070;" glyph-name="uniE070" d="M0 490.668l1024 469.332-469.334-1024-128 426.666zM571.332 177.334l279.332 609.334-609.332-279.334 254-76z" />
<glyph unicode="&#xe071;" glyph-name="uniE071" d="M512 917.334q95.668 0 182.5-37.168t149.668-100 100-149.666 37.168-182.5-37.168-182.5-100-149.668-149.668-100-182.5-37.168-182.5 37.168-149.668 100-100 149.668-37.168 182.5 37.168 182.5 100 149.666 149.668 100 182.5 37.168zM554.668 829.668v-125.666q0-17.668-12.5-30.168t-30.168-12.5-30.168 12.5-12.5 30.168v125.666q-66-7.332-125.168-36.332t-103.832-73.668-73.668-103.832-36.332-125.166h125.668q17.666 0 30.166-12.5t12.5-30.168-12.5-30.168-30.168-12.5h-125.668q7.332-66 36.332-125.168t73.668-103.832 103.834-73.668 125.168-36.332v125.668q0 17.668 12.5 30.168t30.168 12.5 30.168-12.5 12.5-30.168v-125.668q66 7.332 125.168 36.332t103.832 73.668 73.668 103.832 36.332 125.168h-125.668q-17.668 0-30.168 12.5t-12.5 30.168 12.5 30.168 30.168 12.5h125.668q-7.332 66-36.332 125.168t-73.668 103.832-103.832 73.668-125.168 36.332z" />
<glyph unicode="&#xe072;" glyph-name="uniE072" d="M682.668 746.668l341.332 213.332v-810.668l-341.334-213.332-341.334 213.332-341.334-213.332v810.666l341.334 213.334zM298.666 223.334v609l-213.332-133.332v-609zM640 672.668l-256 160.332v-609.668l256-160v609.334zM938.668 196.668v609.334l-213.332-133.334v-609.332z" />
<glyph unicode="&#xe073;" glyph-name="uniE073" d="M128 746.668h640q53 0 90.5-37.5t37.5-90.5q53 0 90.5-37.5t37.5-90.5v-85.334q0-53-37.5-90.5t-90.5-37.5q0-53-37.5-90.5t-90.5-37.5h-640q-53 0-90.5 37.5t-37.5 90.5v341.334q0 53 37.5 90.5t90.5 37.5zM768 661.334h-640q-17.668 0-30.168-12.5t-12.5-30.168v-341.332q0-17.668 12.5-30.168t30.168-12.5h640q17.668 0 30.168 12.5t12.5 30.168v341.334q0 17.668-12.5 30.168t-30.168 12.5zM896 533.334v-170.668q17.668 0 30.168 12.5t12.5 30.168v85.334q0 17.668-12.5 30.168t-30.168 12.5z" />
<glyph unicode="&#xe074;" glyph-name="uniE074" d="M512 960q69.668 0 128.5-34.332t93.168-93.166 34.332-128.5v-128q0-53.334-20.668-101t-57.668-83q97.332-15.332 173-45.168t118.5-70.5 42.832-85.668v-84q0-53-37.5-90.5t-90.5-37.5h-768q-53 0-90.5 37.5t-37.5 90.5v84.332q0 45 42.832 85.668t118.332 70.5 172.834 44.832q-36.668 35.668-57.332 83.168t-20.668 100.832v128q0 69.668 34.332 128.5t93.166 93.168 128.5 34.332zM512 320q-92.668 0-178.832-14.832t-150.168-41.5q-25.668-10.668-45.832-22.668t-30.668-21.668-15.832-16.832-5.332-11.5v-84.332q0-17.668 12.5-30.168t30.168-12.5h768q17.668 0 30.168 12.5t12.5 30.168v84q0 4.332-5.332 11.5t-15.832 16.832-30.668 21.668-45.832 23q-64 26.668-150.168 41.5t-178.832 14.832zM512 874.668q-70.668 0-120.668-50t-50-120.666v-128q0-70.668 50-120.668t120.668-50 120.668 50 50 120.668v128q0 70.666-50 120.666t-120.668 50z" />
<glyph unicode="&#xe075;" glyph-name="uniE075" d="M426.666 874.668h170.666q53 0 90.5-37.5t37.5-90.5v-42.666h128q53 0 90.5-37.5t37.5-90.5v-426.668q0-53-37.5-90.5t-90.5-37.5h-682.668q-53 0-90.5 37.5t-37.5 90.5v426.668q0 53 37.5 90.5t90.5 37.5h128v42.666q0 53 37.5 90.5t90.5 37.5zM213.332 106.668v512h-42.668q-17.668 0-30.168-12.5t-12.5-30.166v-426.668q0-17.668 12.5-30.168t30.168-12.5h42.668zM725.332 106.668v512h-426.666v-512h426.666zM853.332 618.668h-42.668v-512h42.668q17.668 0 30.168 12.5t12.5 30.168v426.668q0 17.668-12.5 30.168t-30.168 12.5zM597.332 789.334h-170.668q-17.668 0-30.168-12.5t-12.5-30.166v-42.666h256v42.666q0 17.668-12.5 30.168t-30.168 12.5z" />
<glyph unicode="&#xe076;" glyph-name="uniE076" d="M170.668 917.334h682.668q53 0 90.5-37.5t37.5-90.5v-469.332q0-53-37.5-90.5t-90.5-37.5h-341.334l-298.666-213.332v213.332h-42.668q-53 0-90.5 37.5t-37.5 90.5v469.334q0 53 37.5 90.5t90.5 37.5zM853.332 832h-682.668q-17.668 0-30.168-12.5t-12.5-30.168v-469.332q0-17.668 12.5-30.168t30.168-12.5h128v-133l186 133h368.666q17.668 0 30.168 12.5t12.5 30.168v469.334q0 17.668-12.5 30.168t-30.168 12.5z" />
<glyph unicode="&#xe077;" glyph-name="uniE077" d="M512 917.334q70.668 0 120.668-50t50-120.668q0-59-36-104.834t-92-60.166v-515.334q71 8 134.168 41.168t108.668 83.5 72 117.332 26.5 139.668q0 17.668 12.5 30.168t30.168 12.5 30.168-12.5 12.5-30.168q0-95.668-37.168-182.5t-100-149.668-149.668-100-182.5-37.168-182.5 37.168-149.668 100-100 149.668-37.168 182.5q0 17.668 12.5 30.168t30.168 12.5 30.168-12.5 12.5-30.168q0-72.668 26.5-139.668t72-117.332 108.668-83.5 134.168-41.168v515.334q-56 14.332-92 60.166t-36 104.834q0 70.666 50 120.666t120.668 50zM512 832q-35.332 0-60.332-25t-25-60.334 25-60.332 60.332-25 60.332 25 25 60.332-25 60.334-60.332 25z" />
<glyph unicode="&#xe078;" glyph-name="uniE078" d="M512 917.334q12 0 18-0.334 62-2.332 120.5-20.5t108.168-48.832 91.168-73.832 70.332-93.832 45-110.168 16.168-121.832-16.168-121.832-45-110.168-70.332-93.832-91.168-73.832-108.168-48.832-120.5-20.5q-6-0.332-18-0.332t-18 0.332q-62 2.332-120.5 20.5t-108.168 48.832-91.168 73.832-70.332 93.832-45 110.168-16.168 121.832 16.168 121.832 45 110.168 70.332 93.832 91.168 73.834 108.168 48.832 120.5 20.5q6 0.332 18 0.332zM300.334 405.334h-170q13.332-119 91.668-209t192.668-120q-43.332 65.668-75.5 148.832t-38.832 180.168zM638.332 405.334h-252.668q3.334-42.668 13.834-85.332t23.5-75.5 30-64.832 30.666-52.668 28.332-39.668q14.668 19 28.332 39.832t30.668 52.832 30 64.832 23.5 75.332 13.832 85.168zM414.666 819.668q-114.334-30-192.668-120t-91.668-209h170q11.666 174 114.332 329zM893.668 405.334h-169.668q-12.332-174.332-114.668-329 114.332 30 192.668 120t91.668 209zM512 808.668q-14.666-19-28.168-39.832t-30.668-52.832-30.168-64.834-23.5-75.332-13.834-85.168h252.666q-3.332 42.668-13.832 85.334t-23.5 75.5-30 64.832-30.668 52.668-28.332 39.666zM609.332 819.668q102.332-154.666 114.668-329h169.668q-13.332 119-91.668 209t-192.668 120z" />
<glyph unicode="&#xe079;" glyph-name="uniE079" d="M42.668 746.668l469.332 213.332 469.334-213.332v-597.332l-469.334-213.332-469.334 213.332v597.332zM469.334 506l-341.334 155v-456.668l341.334-155.332v457zM896 204.334v456.668l-341.334-155v-457zM826.668 723.334l-314.668 143-314.666-143 314.666-143z" />
<glyph unicode="&#xe080;" glyph-name="uniE080" d="M469.334 874.668q83 0 160.666-31.332 79.668-32.332 141-93.668 0.332-0.332 125-122.332v162q0 17.668 12.5 30.168t30.168 12.5 30.168-12.5 12.5-30.168v-256q0-17.666-12.5-30.166t-30.168-12.5h-256q-17.668 0-30.168 12.5t-12.5 30.168 12.5 30.166 30.168 12.5h144q-92.668 90-116 113.334-49.668 49.666-113 75-61 25-128.332 25t-128.332-25q-63.668-25.334-113-75-49.332-49.334-75-113-25-61-25-128.334t25-128.332q25.668-63.668 75-113 49.332-49.668 113-75 61-25 128.332-25t128.332 25q63.332 25.332 113 75 55.332 55.332 80.668 127.668 5.668 16.668 21.668 24.168t32.668 1.832q16.668-6 24.332-22t1.668-32.668q-15.332-43.668-41.5-85.332t-59.168-74q-61.332-61.332-141-93.668-77.668-31.332-160.668-31.332t-160.668 31.332q-79.668 32.332-141 93.668t-93.668 141q-31.332 77.668-31.332 160.668t31.332 160.668q32.332 79.668 93.668 141t141 93.668q77.668 31.332 160.668 31.332z" />
<glyph unicode="&#xe081;" glyph-name="uniE081" d="M768 874.668q70.668 0 120.668-50t50-120.666-50-120.668-120.668-50q-37.668 0-71.168 15.5t-57.5 43.168l-216.332-108.334q3.666-17.668 3.666-35.668t-3.666-35.668l216.332-108.332q24 27.668 57.5 43.168t71.168 15.5q70.668 0 120.668-50t50-120.668-50-120.668-120.668-50-120.668 50-50 120.668q0 18 3.668 35.668l-216.332 108.332q-24-27.668-57.5-43.168t-71.168-15.5q-70.668 0-120.668 50t-50 120.668 50 120.668 120.668 50q37.668 0 71.168-15.5t57.5-43.166l216.332 108.332q-3.668 17.668-3.668 35.668 0 70.666 50 120.666t120.668 50zM256 533.334q-35.332 0-60.332-25t-25-60.334 25-60.332 60.332-25 60.332 25 25 60.332-25 60.334-60.332 25zM768 277.334q-35.332 0-60.332-25t-25-60.332 25-60.332 60.332-25 60.332 25 25 60.332-25 60.332-60.332 25zM768 789.334q-35.332 0-60.332-25t-25-60.332 25-60.334 60.332-25 60.332 25 25 60.334-25 60.332-60.332 25z" />
<glyph unicode="&#xe082;" glyph-name="uniE082" d="M768 917.334h85.332q53 0 90.5-37.5t37.5-90.5v-85.332q0-17.668-12.5-30.168t-30.168-12.5-30.168 12.5-12.5 30.168v85.332q0 17.668-12.5 30.168t-30.168 12.5h-85.332q-17.668 0-30.168 12.5t-12.5 30.166 12.5 30.168 30.168 12.5zM85.332 234.668q17.668 0 30.168-12.5t12.5-30.168v-85.332q0-17.668 12.5-30.168t30.168-12.5h85.332q17.668 0 30.168-12.5t12.5-30.168-12.5-30.168-30.168-12.5h-85.332q-53 0-90.5 37.5t-37.5 90.5v85.332q0 17.668 12.5 30.168t30.168 12.5zM85.332 576q17.668 0 30.168-12.5t12.5-30.168v-170.668q0-17.668-12.5-30.168t-30.168-12.5-30.168 12.5-12.5 30.168v170.668q0 17.668 12.5 30.168t30.168 12.5zM426.666 64h170.666q17.668 0 30.168-12.5t12.5-30.168-12.5-30.168-30.168-12.5h-170.668q-17.668 0-30.168 12.5t-12.5 30.168 12.5 30.168 30.168 12.5zM170.668 917.334h85.332q17.668 0 30.168-12.5t12.5-30.168-12.5-30.168-30.168-12.5h-85.332q-17.668 0-30.168-12.5t-12.5-30.168v-85.332q0-17.668-12.5-30.168t-30.168-12.5-30.168 12.5-12.5 30.168v85.332q0 53 37.5 90.5t90.5 37.5zM938.668 234.668q17.668 0 30.168-12.5t12.5-30.168v-85.332q0-53-37.5-90.5t-90.5-37.5h-85.332q-17.668 0-30.168 12.5t-12.5 30.168 12.5 30.168 30.168 12.5h85.332q17.668 0 30.168 12.5t12.5 30.168v85.332q0 17.668 12.5 30.168t30.168 12.5zM938.668 576q17.668 0 30.168-12.5t12.5-30.168v-170.668q0-17.668-12.5-30.168t-30.168-12.5-30.168 12.5-12.5 30.168v170.668q0 17.668 12.5 30.168t30.168 12.5zM426.666 917.334h170.666q17.668 0 30.168-12.5t12.5-30.168-12.5-30.168-30.168-12.5h-170.668q-17.668 0-30.168 12.5t-12.5 30.168 12.5 30.168 30.168 12.5z" />
<glyph unicode="&#xe083;" glyph-name="uniE083" d="M512 661.334q17.668 0 30.168-12.5t12.5-30.168v-128h128q17.668 0 30.168-12.5t12.5-30.168-12.5-30.168-30.168-12.5h-128v-128q0-17.668-12.5-30.168t-30.168-12.5-30.168 12.5-12.5 30.168v128h-128q-17.668 0-30.168 12.5t-12.5 30.168 12.5 30.168 30.168 12.5h128v128q0 17.668 12.5 30.168t30.168 12.5zM85.332 234.668q17.668 0 30.168-12.5t12.5-30.168v-85.332q0-17.668 12.5-30.168t30.168-12.5h85.332q17.668 0 30.168-12.5t12.5-30.168-12.5-30.168-30.168-12.5h-85.332q-53 0-90.5 37.5t-37.5 90.5v85.332q0 17.668 12.5 30.168t30.168 12.5zM85.332 576q17.668 0 30.168-12.5t12.5-30.168v-170.668q0-17.668-12.5-30.168t-30.168-12.5-30.168 12.5-12.5 30.168v170.668q0 17.668 12.5 30.168t30.168 12.5zM426.666 64h170.666q17.668 0 30.168-12.5t12.5-30.168-12.5-30.168-30.168-12.5h-170.668q-17.668 0-30.168 12.5t-12.5 30.168 12.5 30.168 30.168 12.5zM170.668 917.334h85.332q17.668 0 30.168-12.5t12.5-30.168-12.5-30.168-30.168-12.5h-85.332q-17.668 0-30.168-12.5t-12.5-30.168v-85.332q0-17.668-12.5-30.168t-30.168-12.5-30.168 12.5-12.5 30.168v85.332q0 53 37.5 90.5t90.5 37.5zM938.668 234.668q17.668 0 30.168-12.5t12.5-30.168v-85.332q0-53-37.5-90.5t-90.5-37.5h-85.332q-17.668 0-30.168 12.5t-12.5 30.168 12.5 30.168 30.168 12.5h85.332q17.668 0 30.168 12.5t12.5 30.168v85.332q0 17.668 12.5 30.168t30.168 12.5zM938.668 576q17.668 0 30.168-12.5t12.5-30.168v-170.668q0-17.668-12.5-30.168t-30.168-12.5-30.168 12.5-12.5 30.168v170.668q0 17.668 12.5 30.168t30.168 12.5zM426.666 917.334h170.666q17.668 0 30.168-12.5t12.5-30.168-12.5-30.168-30.168-12.5h-170.668q-17.668 0-30.168 12.5t-12.5 30.168 12.5 30.168 30.168 12.5zM768 917.334h85.332q53 0 90.5-37.5t37.5-90.5v-85.332q0-17.668-12.5-30.168t-30.168-12.5-30.168 12.5-12.5 30.168v85.332q0 17.668-12.5 30.168t-30.168 12.5h-85.332q-17.668 0-30.168 12.5t-12.5 30.166 12.5 30.168 30.168 12.5z" />
<glyph unicode="&#xe084;" glyph-name="uniE084" d="M768 917.334h85.332q53 0 90.5-37.5t37.5-90.5v-85.332q0-17.668-12.5-30.168t-30.168-12.5-30.168 12.5-12.5 30.168v85.332q0 17.668-12.5 30.168t-30.168 12.5h-85.332q-17.668 0-30.168 12.5t-12.5 30.166 12.5 30.168 30.168 12.5zM85.332 234.668q17.668 0 30.168-12.5t12.5-30.168v-85.332q0-17.668 12.5-30.168t30.168-12.5h85.332q17.668 0 30.168-12.5t12.5-30.168-12.5-30.168-30.168-12.5h-85.332q-53 0-90.5 37.5t-37.5 90.5v85.332q0 17.668 12.5 30.168t30.168 12.5zM85.332 576q17.668 0 30.168-12.5t12.5-30.168v-170.668q0-17.668-12.5-30.168t-30.168-12.5-30.168 12.5-12.5 30.168v170.668q0 17.668 12.5 30.168t30.168 12.5zM426.666 64h170.666q17.668 0 30.168-12.5t12.5-30.168-12.5-30.168-30.168-12.5h-170.668q-17.668 0-30.168 12.5t-12.5 30.168 12.5 30.168 30.168 12.5zM170.668 917.334h85.332q17.668 0 30.168-12.5t12.5-30.168-12.5-30.168-30.168-12.5h-85.332q-17.668 0-30.168-12.5t-12.5-30.168v-85.332q0-17.668-12.5-30.168t-30.168-12.5-30.168 12.5-12.5 30.168v85.332q0 53 37.5 90.5t90.5 37.5zM938.668 234.668q17.668 0 30.168-12.5t12.5-30.168v-85.332q0-53-37.5-90.5t-90.5-37.5h-85.332q-17.668 0-30.168 12.5t-12.5 30.168 12.5 30.168 30.168 12.5h85.332q17.668 0 30.168 12.5t12.5 30.168v85.332q0 17.668 12.5 30.168t30.168 12.5zM341.334 490.668h341.334q17.668 0 30.168-12.5t12.5-30.168-12.5-30.168-30.168-12.5h-341.334q-17.666 0-30.166 12.5t-12.5 30.168 12.5 30.168 30.168 12.5zM938.668 576q17.668 0 30.168-12.5t12.5-30.168v-170.668q0-17.668-12.5-30.168t-30.168-12.5-30.168 12.5-12.5 30.168v170.668q0 17.668 12.5 30.168t30.168 12.5zM426.666 917.334h170.666q17.668 0 30.168-12.5t12.5-30.168-12.5-30.168-30.168-12.5h-170.668q-17.668 0-30.168 12.5t-12.5 30.168 12.5 30.168 30.168 12.5z" />
<glyph unicode="&#xe085;" glyph-name="uniE085" d="M42.668 917.334h482.666l418.668-418.334q37.332-37.334 37.332-90.334 0-53.332-37.332-90.668l-302-302q-37.332-37.332-90.332-37.332-53.332 0-90.668 37.332l-418.334 418.666v482.668zM883.668 438.668l-393.666 393.334h-362v-362l393.334-393.668q12.668-12.332 30.332-12.332t30 12.332l302 302q12.332 12.332 12.332 30t-12.332 30.332zM362.666 704q44.334 0 75.5-31.168t31.166-75.5-31.168-75.5-75.5-31.168-75.5 31.168-31.168 75.5 31.168 75.5 75.5 31.168zM362.666 618.668q-8.666 0-15-6.334t-6.334-15 6.334-15 15-6.332 15 6.332 6.334 15-6.334 15-15 6.334z" />
<glyph unicode="&#xe086;" glyph-name="uniE086" d="M813.668 707q59-59 91.332-135.668 33.668-79.332 33.668-166t-33.668-166q-32.332-76.668-91.332-135.668t-135.668-91.332q-79.332-33.668-166-33.668t-166 33.668q-76.668 32.332-135.668 91.332t-91.332 135.668q-33.668 79.332-33.668 166t33.668 166q32.332 76.668 91.332 135.668 12.332 12.332 30 12.332t30.332-12.332 12.666-30-12.666-30.334q-47-47-73.332-108.332-26.668-64-26.668-133t26.668-133q26.332-61.332 73.332-108.332t108.334-73.332q64-26.668 133-26.668t133 26.668q61.332 26.332 108.332 73.332t73.332 108.332q26.668 64 26.668 133t-26.668 133q-26.332 61.332-73.332 108.332-12.668 12.668-12.668 30.334t12.668 30 30.332 12.332 30-12.332zM512 917.334q17.668 0 30.168-12.5t12.5-30.168v-426.668q0-17.668-12.5-30.168t-30.168-12.5-30.168 12.5-12.5 30.168v426.668q0 17.668 12.5 30.168t30.168 12.5z" />
<glyph unicode="&#xe087;" glyph-name="uniE087" d="M768 874.668q70.668 0 120.668-50t50-120.666-50-120.668-120.668-50h-85.332v-170.668h85.332q70.668 0 120.668-50t50-120.668-50-120.668-120.668-50-120.668 50-50 120.668v85.332h-170.668v-85.332q0-70.668-50-120.668t-120.668-50-120.668 50-50 120.668 50 120.668 120.668 50h85.332v170.668h-85.332q-70.668 0-120.668 50t-50 120.668 50 120.666 120.668 50 120.668-50 50-120.666v-85.334h170.668v85.334q0 70.666 50 120.666t120.668 50zM341.334 192v85.332h-85.334q-35.332 0-60.332-25t-25-60.332 25-60.332 60.332-25 60.332 25 25 60.332zM256 789.334q-35.332 0-60.332-25t-25-60.332 25-60.334 60.332-25h85.332v85.334q0 35.332-25 60.332t-60.332 25zM597.332 362.668v170.668h-170.668v-170.668h170.668zM768 277.334h-85.332v-85.332q0-35.332 25-60.332t60.332-25 60.332 25 25 60.332-25 60.332-60.332 25zM768 789.334q-35.332 0-60.332-25t-25-60.332v-85.334h85.332q35.332 0 60.332 25t25 60.334-25 60.332-60.332 25z" />
<glyph unicode="&#xe088;" glyph-name="uniE088" d="M128 789.334h213.332q24.332 0 37-21.332l329-576h188.668q17.668 0 30.168-12.5t12.5-30.168-12.5-30.168-30.168-12.5h-213.332q-24.332 0-37 21.332l-329 576h-188.668q-17.668 0-30.168 12.5t-12.5 30.168 12.5 30.168 30.168 12.5zM597.332 789.334h213.332q17.668 0 30.168-12.5t12.5-30.166-12.5-30.168-30.168-12.5h-213.332q-17.668 0-30.168 12.5t-12.5 30.166 12.5 30.168 30.168 12.5z" />
<glyph unicode="&#xe089;" glyph-name="uniE089" d="M559 915q86.332-8.666 163.832-47.666t136.168-103.332q57.668-63.334 89.668-143.668 32.668-83 32.668-172.332 0-95.668-37-182.668-34.332-82.332-100.332-149.332-67-66-149.332-100.332-87-37-182.668-37-89.332 0-172.332 32.668-80.332 32-143.668 89.668-64.332 58.668-103.332 136.168t-47.668 163.832q-1.668 19 10.832 33t31.832 14q16.332 0 28.5-11t13.832-27.332q7-71 38.832-134.332t84.832-111.332q51.666-47.668 117.334-73.332 68-26.668 141-26.668 78.332 0 149.332 30 67.332 28.332 122.332 82.332 54 55 82.332 122.332 30 71 30 149.332 0 73-26.668 141-25.668 65.668-73.332 117.334-48 53-111.332 84.832t-134.332 38.832q-16.332 1.668-27.332 13.834t-11 28.5q0 12.668 4.832 21.668t12.832 13.332 15.168 6 14.168 1.668zM85.332 917.334h256q17.668 0 30.168-12.5t12.5-30.168-12.5-30.168-30.168-12.5h-153l354-354q12.332-12 12.332-30 0-18.332-12.168-30.5t-30.5-12.168q-18 0-30.332 12.332l-353.666 354v-153q0-17.668-12.5-30.168t-30.168-12.5-30.168 12.5-12.5 30.168v256q0 17.668 12.5 30.168t30.168 12.5z" />
<glyph unicode="&#xe090;" glyph-name="uniE090" d="M853.332 917.334q53 0 90.5-37.5t37.5-90.5v-682.668q0-53-37.5-90.5t-90.5-37.5-90.5 37.5-37.5 90.5v682.668q0 53 37.5 90.5t90.5 37.5zM170.668 405.334q53 0 90.5-37.5t37.5-90.5v-170.668q0-53-37.5-90.5t-90.5-37.5-90.5 37.5-37.5 90.5v170.668q0 53 37.5 90.5t90.5 37.5zM170.668 320q-17.668 0-30.168-12.5t-12.5-30.168v-170.668q0-17.668 12.5-30.168t30.168-12.5 30.168 12.5 12.5 30.168v170.668q0 17.668-12.5 30.168t-30.168 12.5zM512 661.334q53 0 90.5-37.5t37.5-90.5v-426.668q0-53-37.5-90.5t-90.5-37.5-90.5 37.5-37.5 90.5v426.668q0 53 37.5 90.5t90.5 37.5zM512 576q-17.668 0-30.168-12.5t-12.5-30.168v-426.668q0-17.668 12.5-30.168t30.168-12.5 30.168 12.5 12.5 30.168v426.668q0 17.666-12.5 30.166t-30.168 12.5zM853.332 832q-17.668 0-30.168-12.5t-12.5-30.168v-682.668q0-17.668 12.5-30.168t30.168-12.5 30.168 12.5 12.5 30.168v682.668q0 17.668-12.5 30.168t-30.168 12.5z" />
<glyph unicode="&#xe091;" glyph-name="uniE091" d="M512 917.334q53 0 90.5-37.5t37.5-90.5v-682.668q0-53-37.5-90.5t-90.5-37.5-90.5 37.5-37.5 90.5v682.668q0 53 37.5 90.5t90.5 37.5zM170.668 405.334q53 0 90.5-37.5t37.5-90.5v-170.668q0-53-37.5-90.5t-90.5-37.5-90.5 37.5-37.5 90.5v170.668q0 53 37.5 90.5t90.5 37.5zM170.668 320q-17.668 0-30.168-12.5t-12.5-30.168v-170.668q0-17.668 12.5-30.168t30.168-12.5 30.168 12.5 12.5 30.168v170.668q0 17.668-12.5 30.168t-30.168 12.5zM512 832q-17.668 0-30.168-12.5t-12.5-30.168v-682.668q0-17.668 12.5-30.168t30.168-12.5 30.168 12.5 12.5 30.168v682.668q0 17.668-12.5 30.168t-30.168 12.5zM853.332 661.334q53 0 90.5-37.5t37.5-90.5v-426.668q0-53-37.5-90.5t-90.5-37.5-90.5 37.5-37.5 90.5v426.668q0 53 37.5 90.5t90.5 37.5zM853.332 576q-17.668 0-30.168-12.5t-12.5-30.168v-426.668q0-17.668 12.5-30.168t30.168-12.5 30.168 12.5 12.5 30.168v426.668q0 17.666-12.5 30.166t-30.168 12.5z" />
<glyph unicode="&#xe092;" glyph-name="uniE092" d="M512 917.334q95.668 0 182.5-37.168t149.668-100 100-149.666 37.168-182.5-37.168-182.5-100-149.668-149.668-100-182.5-37.168-182.5 37.168-149.668 100-100 149.668-37.168 182.5 37.168 182.5 100 149.666 149.668 100 182.5 37.168zM469.334 405.334v424.334q-71-8-134.166-41.168t-108.668-83.5-72-117.332-26.5-139.668q0-78 30.5-149.168t81.832-122.5 122.5-81.832 149.166-30.5q72.668 0 139.668 26.5t117.332 72 83.5 108.668 41.168 134.168h-424.334zM554.668 829.668v-339h339q-7.332 66-36.332 125.168t-73.668 103.832-103.832 73.668-125.168 36.332z" />
<glyph unicode="&#xe094;" glyph-name="uniE094" d="M426.666 789.334q17.666 0 30.166-12.5t12.5-30.166q0-18-12.666-30.334l-225.668-225.666h665q17.668 0 30.168-12.5t12.5-30.168-12.5-30.168-30.168-12.5h-665l225.668-225.668q12.666-12.332 12.666-30.332 0-17.668-12.5-30.168t-30.166-12.5q-18 0-30.332 12.332l-298.666 298.668q-12.332 13-12.332 30.332t12.332 30.334l298.666 298.666q12.666 12.332 30.332 12.332z" />
<glyph unicode="&#xe095;" glyph-name="uniE095" d="M597.332 789.334q18 0 30.332-12.332l298.666-298.668q12.332-12.334 12.332-30.334t-12.332-30.332l-298.666-298.668q-12.332-12.332-30.332-12.332-18.332 0-30.5 12.168t-12.168 30.5q0 18 12.332 30.332l226 225.668h-665q-17.668 0-30.168 12.5t-12.5 30.168 12.5 30.168 30.168 12.5h665l-226 225.666q-12.332 12.334-12.332 30.334 0 18.332 12.168 30.5t30.5 12.166z" />
<glyph unicode="&#xe096;" glyph-name="uniE096" d="M512 874.668q18 0 30.332-12.332l298.668-298.668q12.332-12.332 12.332-30.332 0-18.334-12.168-30.5t-30.5-12.166q-18 0-30.332 12.334l-225.668 226v-665q0-17.668-12.5-30.168t-30.168-12.5-30.168 12.5-12.5 30.168v665l-225.668-226q-12.332-12.334-30.332-12.334-18.332 0-30.5 12.166t-12.168 30.5q0 18 12.332 30.332l298.666 298.668q12.334 12.332 30.332 12.332z" />
<glyph unicode="&#xe097;" glyph-name="uniE097" d="M512 874.668q17.668 0 30.168-12.5t12.5-30.166v-665l225.668 226q12.332 12.332 30.332 12.332 18.332 0 30.5-12.168t12.168-30.5q0-18-12.332-30.332l-298.668-298.668q-12.332-12.332-30.332-12.332t-30.332 12.332l-298.666 298.666q-12.332 12.332-12.332 30.332 0 18.332 12.168 30.5t30.5 12.168q18 0 30.332-12.332l225.668-226v665q0 17.668 12.5 30.168t30.168 12.5z" />
<glyph unicode="&#xe098;" glyph-name="uniE098" d="M213.332 618.668l213.332 213.332v-768l-213.332 213.332h-85.332q-53 0-90.5 37.5t-37.5 90.5v83.668q0 53 37.5 91.332t90.5 38.334h85.332zM341.334 270v357.668l-92.668-94.334h-120.668q-17.332 0-30-13.166t-12.668-31.166v-83.668q0-17.668 12.5-30.168t30.168-12.5h120.668zM620 590.334q12.332 0 23.168-7t16.168-19q23.332-56.334 23.332-116.334 0-61-23.332-115.668-5-12-15.832-19.168t-23.5-7.168q-15.668 0-29.168 11.832t-13.5 30.832q0 7.668 3.332 16.668 16.668 39.332 16.668 82.668 0 43-16.668 83-3.332 7.666-3.332 16.668 0 19 12.832 30.832t29.832 11.834zM750.332 709.334q24 0 36.668-21 33-55 49-113.666 17.332-62.668 17.332-126.668 0-63.668-17.332-127-16.332-59.332-49-113.668-12.332-20.668-36.668-20.668-16.668 0-29.668 12t-13 30.668q0 11.668 6.332 22 26 43.332 39.668 92.668 14.332 50 14.332 104 0 53.668-14.332 103.668-13.668 49.332-39.668 93-6.332 9.666-6.332 21.666 0 18 13.168 30.5t29.5 12.5zM878 826.334q23 0 35.332-18.666 54.332-79.668 82.5-171.334t28.168-188.332-28.168-188.332-82.5-171.332q-12-18.668-35.332-18.668-17.332 0-29.832 12t-12.5 30.668q0 13.332 7.332 24 95.668 140.332 95.668 311.668 0 84-24.332 163.334t-71.332 148.332q-7.332 10.668-7.332 24 0 18.668 12.5 30.668t29.832 12z" />
<glyph unicode="&#xe099;" glyph-name="uniE099" d="M256 618.668l213.332 213.332v-768l-213.332 213.332h-85.332q-53 0-90.5 37.5t-37.5 90.5v83.668q0 53 37.5 91.332t90.5 38.334h85.332zM384 270v357.668l-92.668-94.334h-120.668q-17.332 0-30-13.166t-12.668-31.166v-83.668q0-17.668 12.5-30.168t30.168-12.5h120.668zM896 618.668q18.332 0 30.5-12.166t12.168-30.5q0-18-12.332-30.334l-98-97.668 98-97.668q12.332-12.332 12.332-30.332 0-18.332-12.168-30.5t-30.5-12.168q-18 0-30.332 12.332l-97.668 98-97.668-98q-12.332-12.332-30.332-12.332-18.332 0-30.5 12.168t-12.168 30.5q0 18 12.332 30.332l98 97.668-98 97.668q-12.332 12.334-12.332 30.334 0 18.332 12.168 30.5t30.5 12.166q18 0 30.332-12.334l97.668-98 97.668 98q12.332 12.334 30.332 12.334z" />
<glyph unicode="&#xe100;" glyph-name="uniE100" d="M682.668 917.334h170.668q53 0 90.5-37.5t37.5-90.5v-682.668q0-53-37.5-90.5t-90.5-37.5h-170.668q-53 0-90.5 37.5t-37.5 90.5v682.668q0 53 37.5 90.5t90.5 37.5zM170.668 405.334h170.668q53 0 90.5-37.5t37.5-90.5v-170.668q0-53-37.5-90.5t-90.5-37.5h-170.668q-53 0-90.5 37.5t-37.5 90.5v170.668q0 53 37.5 90.5t90.5 37.5zM341.334 320h-170.668q-17.668 0-30.168-12.5t-12.5-30.168v-170.668q0-17.668 12.5-30.168t30.168-12.5h170.668q17.666 0 30.166 12.5t12.5 30.168v170.668q0 17.668-12.5 30.168t-30.168 12.5zM170.668 917.334h170.668q53 0 90.5-37.5t37.5-90.5v-170.666q0-53-37.5-90.5t-90.5-37.5h-170.668q-53 0-90.5 37.5t-37.5 90.5v170.666q0 53 37.5 90.5t90.5 37.5zM341.334 832h-170.668q-17.668 0-30.168-12.5t-12.5-30.168v-170.666q0-17.666 12.5-30.166t30.168-12.5h170.668q17.666 0 30.166 12.5t12.5 30.166v170.668q0 17.668-12.5 30.168t-30.168 12.5zM853.332 832h-170.668q-17.668 0-30.168-12.5t-12.5-30.168v-682.668q0-17.668 12.5-30.168t30.168-12.5h170.668q17.668 0 30.168 12.5t12.5 30.168v682.668q0 17.668-12.5 30.168t-30.168 12.5z" />
<glyph unicode="&#xe101;" glyph-name="uniE101" d="M170.668 917.334h170.668q53 0 90.5-37.5t37.5-90.5v-682.668q0-53-37.5-90.5t-90.5-37.5h-170.668q-53 0-90.5 37.5t-37.5 90.5v682.668q0 53 37.5 90.5t90.5 37.5zM341.334 832h-170.668q-17.668 0-30.168-12.5t-12.5-30.168v-682.668q0-17.668 12.5-30.168t30.168-12.5h170.668q17.666 0 30.166 12.5t12.5 30.168v682.668q0 17.668-12.5 30.168t-30.168 12.5zM682.668 405.334h170.668q53 0 90.5-37.5t37.5-90.5v-170.668q0-53-37.5-90.5t-90.5-37.5h-170.668q-53 0-90.5 37.5t-37.5 90.5v170.668q0 53 37.5 90.5t90.5 37.5zM853.332 320h-170.668q-17.668 0-30.168-12.5t-12.5-30.168v-170.668q0-17.668 12.5-30.168t30.168-12.5h170.668q17.668 0 30.168 12.5t12.5 30.168v170.668q0 17.668-12.5 30.168t-30.168 12.5zM682.668 917.334h170.668q53 0 90.5-37.5t37.5-90.5v-170.666q0-53-37.5-90.5t-90.5-37.5h-170.668q-53 0-90.5 37.5t-37.5 90.5v170.666q0 53 37.5 90.5t90.5 37.5zM853.332 832h-170.668q-17.668 0-30.168-12.5t-12.5-30.168v-170.666q0-17.666 12.5-30.166t30.168-12.5h170.668q17.668 0 30.168 12.5t12.5 30.166v170.668q0 17.668-12.5 30.168t-30.168 12.5z" />
<glyph unicode="&#xe102;" glyph-name="uniE102" d="M682.668 917.334h170.668q53 0 90.5-37.5t37.5-90.5v-170.666q0-53-37.5-90.5t-90.5-37.5h-170.668q-53 0-90.5 37.5t-37.5 90.5v170.666q0 53 37.5 90.5t90.5 37.5zM170.668 405.334h170.668q53 0 90.5-37.5t37.5-90.5v-170.668q0-53-37.5-90.5t-90.5-37.5h-170.668q-53 0-90.5 37.5t-37.5 90.5v170.668q0 53 37.5 90.5t90.5 37.5zM341.334 320h-170.668q-17.668 0-30.168-12.5t-12.5-30.168v-170.668q0-17.668 12.5-30.168t30.168-12.5h170.668q17.666 0 30.166 12.5t12.5 30.168v170.668q0 17.668-12.5 30.168t-30.168 12.5zM170.668 917.334h170.668q53 0 90.5-37.5t37.5-90.5v-170.666q0-53-37.5-90.5t-90.5-37.5h-170.668q-53 0-90.5 37.5t-37.5 90.5v170.666q0 53 37.5 90.5t90.5 37.5zM341.334 832h-170.668q-17.668 0-30.168-12.5t-12.5-30.168v-170.666q0-17.666 12.5-30.166t30.168-12.5h170.668q17.666 0 30.166 12.5t12.5 30.166v170.668q0 17.668-12.5 30.168t-30.168 12.5zM682.668 405.334h170.668q53 0 90.5-37.5t37.5-90.5v-170.668q0-53-37.5-90.5t-90.5-37.5h-170.668q-53 0-90.5 37.5t-37.5 90.5v170.668q0 53 37.5 90.5t90.5 37.5zM853.332 320h-170.668q-17.668 0-30.168-12.5t-12.5-30.168v-170.668q0-17.668 12.5-30.168t30.168-12.5h170.668q17.668 0 30.168 12.5t12.5 30.168v170.668q0 17.668-12.5 30.168t-30.168 12.5zM853.332 832h-170.668q-17.668 0-30.168-12.5t-12.5-30.168v-170.666q0-17.666 12.5-30.166t30.168-12.5h170.668q17.668 0 30.168 12.5t12.5 30.166v170.668q0 17.668-12.5 30.168t-30.168 12.5z" />
<glyph unicode="&#xe103;" glyph-name="uniE103" d="M170.668 917.334h682.668q53 0 90.5-37.5t37.5-90.5v-682.668q0-53-37.5-90.5t-90.5-37.5h-682.668q-53 0-90.5 37.5t-37.5 90.5v682.668q0 53 37.5 90.5t90.5 37.5zM469.334 64v341.334h-341.334v-298.666q0-17.668 12.5-30.168t30.168-12.5h298.666zM469.334 490.668v341.334h-298.666q-17.668 0-30.168-12.5t-12.5-30.168v-298.666h341.334zM896 106.668v298.668h-341.334v-341.334h298.666q17.668 0 30.168 12.5t12.5 30.168zM853.332 832h-298.668v-341.334h341.334v298.666q0 17.668-12.5 30.168t-30.168 12.5z" />
<glyph unicode="&#xe104;" glyph-name="uniE104" d="M128 832h768q53 0 90.5-37.5t37.5-90.5v-512q0-53-37.5-90.5t-90.5-37.5h-768q-53 0-90.5 37.5t-37.5 90.5v512q0 53 37.5 90.5t90.5 37.5zM298.666 149.334v597.334h-170.668q-17.668 0-30.168-12.5t-12.5-30.168v-512q0-17.668 12.5-30.168t30.168-12.5h170.668zM640 149.334v597.334h-256v-597.334h256zM896 746.668h-170.668v-597.332h170.668q17.668 0 30.168 12.5t12.5 30.168v512q0 17.668-12.5 30.168t-30.168 12.5z" />
<glyph unicode="&#xe105;" glyph-name="uniE105" d="M693.332 309.668q17.332 0 30-12.668l120.668-120.668q12.668-12.668 12.668-30.332 0-17.332-12.668-30t-30-12.668q-17.668 0-30.332 12.668l-120.668 120.668q-12.332 12.332-12.332 30.332 0 17.668 12.5 30.168t30.168 12.5zM331 309.668q17.668 0 30.168-12.5t12.5-30.168-12.666-30.332l-120.668-120.668q-12.668-12.668-30-12.668-17.668 0-30.168 12.5t-12.5 30.168q0 18 12.332 30.332l120.668 120.668q12.666 12.668 30.332 12.668zM85.332 490.668h170.668q17.668 0 30.168-12.5t12.5-30.168-12.5-30.168-30.168-12.5h-170.668q-17.668 0-30.168 12.5t-12.5 30.168 12.5 30.168 30.168 12.5zM512 234.668q17.668 0 30.168-12.5t12.5-30.168v-170.668q0-17.668-12.5-30.168t-30.168-12.5-30.168 12.5-12.5 30.168v170.668q0 17.668 12.5 30.168t30.168 12.5zM210.332 792.668q17.332 0 30-12.666l120.668-120.668q12.666-12.666 12.666-30 0-17.666-12.5-30.166t-30.166-12.5q-18 0-30.332 12.332l-120.668 120.668q-12.332 12.332-12.332 30.332 0 17.668 12.5 30.168t30.168 12.5zM768 490.668h170.668q17.668 0 30.168-12.5t12.5-30.168-12.5-30.168-30.168-12.5h-170.668q-17.668 0-30.168 12.5t-12.5 30.168 12.5 30.168 30.168 12.5zM512 917.334q17.668 0 30.168-12.5t12.5-30.168v-170.666q0-17.668-12.5-30.168t-30.168-12.5-30.168 12.5-12.5 30.168v170.666q0 17.668 12.5 30.168t30.168 12.5zM814 792.668q17.332 0 30-12.666t12.668-30q0-17.668-12.668-30.334l-120.668-120.666q-12.332-12.334-30-12.334-18.332 0-30.5 12.166t-12.168 30.5q0 17.668 12.332 30l120.668 120.668q12.668 12.668 30.332 12.668z" />
<glyph unicode="&#xe106;" glyph-name="uniE106" d="M512 960q43.332 0 82.832-17t68-45.5 45.5-68 17-82.834v-42.666h170.668v-640q0-53-37.5-90.5t-90.5-37.5h-512q-53 0-90.5 37.5t-37.5 90.5v640h170.668v42.666q0 43.334 17 82.834t45.5 68 68 45.5 82.832 17zM810.668 64v554.668h-597.332v-554.668q0-17.668 12.5-30.168t30.168-12.5h512q17.668 0 30.168 12.5t12.5 30.168zM512 874.668q-53 0-90.5-37.5t-37.5-90.5v-42.666h256v42.666q0 53-37.5 90.5t-90.5 37.5z" />
<glyph unicode="&#xe107;" glyph-name="uniE107" d="M512 917.334q95.668 0 182.5-37.168t149.668-100 100-149.666 37.168-182.5-37.168-182.5-100-149.668-149.668-100-182.5-37.168-182.5 37.168-149.668 100-100 149.668-37.168 182.5 37.168 182.5 100 149.666 149.668 100 182.5 37.168zM751.668 148l-539.668 539.668q-40-50.332-62-111.666t-22-128q0-78 30.5-149.168t81.832-122.5 122.5-81.832 149.168-30.5q67 0 128.332 21.832t111.332 62.168zM512 832q-67 0-128.332-21.834t-111.332-62.166l539.668-539.668q40.332 50 62.168 111.332t21.832 128.332q0 78-30.5 149.168t-81.832 122.5-122.5 81.832-149.168 30.5z" />
<glyph unicode="&#xe108;" glyph-name="uniE108" d="M298.666 917.334q35.334 0 76-8.834t78.334-21.332l75.332-25t78.332-21.332 76-8.832q36 0 71 4.332t59.668 10.668 44.168 12.666 29.168 10.668l9.332 4.332v-597.332q-3.332-1.668-10-4.5t-28.168-10.332-44.832-13-58.832-10.168-71.5-4.668q-35.332 0-76 8.832t-78.332 21.332l-75.332 25t-78.332 21.332-76 8.832q-63.668 0-128-14.332v-284.334q0-17.668-12.5-30.168t-30.168-12.5-30.168 12.5-12.5 30.168v853.332q3.332 1.668 10 4.5t28.168 10.334 44.832 13 58.832 10.166 71.5 4.668zM298.666 832q-65.332 0-128-17v-422.334q64 12.668 128 12.668 47.334 0 94.666-10.832t107.668-30.832q7.666-2.668 28.832-9.832t31-10.332 28.832-8.668 31.832-8 29.5-4.668 31.668-2.168q65.332 0 128 17v422.334q-64-12.668-128-12.668-47.332 0-94.668 10.834t-107.668 30.832q-7.666 2.668-28.832 9.834t-31 10.332-28.832 8.668-31.832 8-29.5 4.666-31.668 2.168z" />
<glyph unicode="&#xe109;" glyph-name="uniE109" d="M426.666 917.334h170.666q53 0 90.5-37.5t37.5-90.5v-42.666h170.668q17.668 0 30.168-12.5t12.5-30.166-12.5-30.168-30.168-12.5h-42.668v-512q0-53-37.5-90.5t-90.5-37.5h-426.666q-53 0-90.5 37.5t-37.5 90.5v512h-42.668q-17.668 0-30.168 12.5t-12.5 30.168 12.5 30.166 30.168 12.5h170.668v42.668q0 53 37.5 90.5t90.5 37.5zM768 149.334v512h-512v-512q0-17.668 12.5-30.168t30.168-12.5h426.668q17.668 0 30.168 12.5t12.5 30.168zM597.332 832h-170.668q-17.668 0-30.168-12.5t-12.5-30.168v-42.666h256v42.666q0 17.668-12.5 30.168t-30.168 12.5z" />
<glyph unicode="&#xe110;" glyph-name="uniE110" d="M725.332 917.334h128q53 0 90.5-37.5t37.5-90.5v-128q0-17.666-12.5-30.166t-30.168-12.5-30.168 12.5-12.5 30.166v128q0 17.668-12.5 30.168t-30.168 12.5h-128q-17.668 0-30.168 12.5t-12.5 30.168 12.5 30.168 30.168 12.5zM85.332 277.334q17.668 0 30.168-12.5t12.5-30.168v-128q0-17.668 12.5-30.168t30.168-12.5h128q17.668 0 30.168-12.5t12.5-30.168-12.5-30.168-30.168-12.5h-128q-53 0-90.5 37.5t-37.5 90.5v128q0 17.668 12.5 30.168t30.168 12.5zM170.668 917.334h128q17.668 0 30.168-12.5t12.5-30.168-12.5-30.168-30.168-12.5h-128q-17.668 0-30.168-12.5t-12.5-30.168v-128q0-17.666-12.5-30.166t-30.168-12.5-30.168 12.5-12.5 30.166v128q0 53 37.5 90.5t90.5 37.5zM938.668 277.334q17.668 0 30.168-12.5t12.5-30.168v-128q0-53-37.5-90.5t-90.5-37.5h-128q-17.668 0-30.168 12.5t-12.5 30.168 12.5 30.168 30.168 12.5h128q17.668 0 30.168 12.5t12.5 30.168v128q0 17.668 12.5 30.168t30.168 12.5z" />
<glyph unicode="&#xe111;" glyph-name="uniE111" d="M725.332 917.334q17.668 0 30.168-12.5t12.5-30.168v-128q0-17.668 12.5-30.168t30.168-12.5h128q17.668 0 30.168-12.5t12.5-30.168-12.5-30.166-30.168-12.5h-128q-53 0-90.5 37.5t-37.5 90.5v128q0 17.668 12.5 30.168t30.168 12.5zM85.332 277.334h128q53 0 90.5-37.5t37.5-90.5v-128q0-17.668-12.5-30.168t-30.168-12.5-30.168 12.5-12.5 30.168v128q0 17.668-12.5 30.168t-30.168 12.5h-128q-17.668 0-30.168 12.5t-12.5 30.168 12.5 30.168 30.168 12.5zM298.666 917.334q17.666 0 30.166-12.5t12.5-30.168v-128q0-53-37.5-90.5t-90.5-37.5h-128q-17.668 0-30.168 12.5t-12.5 30.166 12.5 30.168 30.168 12.5h128q17.668 0 30.168 12.5t12.5 30.166v128q0 17.668 12.5 30.168t30.168 12.5zM810.668 277.334h128q17.668 0 30.168-12.5t12.5-30.168-12.5-30.168-30.168-12.5h-128q-17.668 0-30.168-12.5t-12.5-30.168v-128q0-17.668-12.5-30.168t-30.168-12.5-30.168 12.5-12.5 30.168v128q0 53 37.5 90.5t90.5 37.5z" />
<glyph unicode="&#xe112;" glyph-name="uniE112" d="M597.332 405.668q17.668 0 30.332-12.668l268.334-268.334v195.668q0 17.668 12.5 30.168t30.168 12.5 30.168-12.5 12.5-30.168v-298.668q0-17.668-12.668-30.332t-30.332-12.668h-298.666q-17.668 0-30.168 12.5t-12.5 30.168 12.5 30.168 30.168 12.5h195.668l-268.332 268.334q-12.332 13-12.332 30.332 0 17.668 12.5 30.332t30.168 12.668zM85.332 917.334h298.668q17.668 0 30.168-12.5t12.5-30.168-12.5-30.168-30.168-12.5h-195.668l268.334-268q12.666-12.668 12.666-30.334t-12.666-30.166-30.332-12.5q-17 0-30.332 12.334l-268 268.332v-195.666q0-17.668-12.5-30.168t-30.168-12.5-30.168 12.5-12.5 30.168v298.666q0 17.668 12.5 30.168t30.168 12.5z" />
<glyph unicode="&#xe113;" glyph-name="uniE113" d="M85.332 917.334q18 0 30.332-12.334l268.334-268.332v195.666q0 17.668 12.5 30.168t30.168 12.5 30.168-12.5 12.5-30.168v-298.666q0-17.666-12.666-30.332t-30.334-12.666h-298.666q-17.668 0-30.168 12.5t-12.5 30.168 12.5 30.166 30.168 12.5h195.666l-268.334 268.334q-12.332 12.332-12.332 30.332 0 18.332 12.168 30.5t30.5 12.168zM597.668 405.334h298.668q17.668 0 30.168-12.5t12.5-30.168-12.5-30.168-30.168-12.5h-195.668l268-268.332q12.668-12.668 12.668-30.332t-12.5-30.168-30.168-12.5q-18 0-30.332 12.332l-268.334 268.332v-195.668q0-17.668-12.5-30.168t-30.168-12.5-30.168 12.5-12.5 30.168v298.668q0 17.668 12.668 30.332t30.332 12.668z" />
<glyph unicode="&#xe114;" glyph-name="uniE114" d="M512 874.668q17.668 0 30.168-12.5t12.5-30.166v-341.334h341.332q17.668 0 30.168-12.5t12.5-30.168-12.5-30.168-30.168-12.5h-341.334v-341.332q0-17.668-12.5-30.168t-30.168-12.5-30.168 12.5-12.5 30.168v341.334h-341.334q-17.668 0-30.168 12.5t-12.5 30.168 12.5 30.168 30.168 12.5h341.334v341.334q0 17.668 12.5 30.168t30.168 12.5z" />
<glyph unicode="&#xe115;" glyph-name="uniE115" d="M128 490.668h768q17.668 0 30.168-12.5t12.5-30.168-12.5-30.168-30.168-12.5h-768q-17.668 0-30.168 12.5t-12.5 30.168 12.5 30.168 30.168 12.5z" />
<glyph unicode="&#xe116;" glyph-name="uniE116" d="M896 746.668q18.332 0 30.5-12.166t12.168-30.5q0-18-12.332-30.334l-512-512q-12.334-12.332-30.332-12.332t-30.332 12.332l-256 256q-12.332 12.332-12.332 30.332 0 18.332 12.168 30.5t30.5 12.166q18 0 30.332-12.334l225.668-226 481.666 482q12.332 12.334 30.332 12.334z" />
<glyph unicode="&#xe117;" glyph-name="uniE117" d="M810.668 789.334q18.332 0 30.5-12.166t12.168-30.5q0-18-12.332-30.334l-268.668-268.332 268.666-268.334q12.332-12.332 12.332-30.332 0-18.332-12.168-30.5t-30.5-12.168q-18 0-30.332 12.332l-268.332 268.668-268.334-268.666q-12.332-12.332-30.332-12.332-18.332 0-30.5 12.168t-12.168 30.5q0 18 12.332 30.332l268.666 268.334-268.666 268.334q-12.332 12.332-12.332 30.332 0 18.334 12.168 30.5t30.5 12.168q18 0 30.332-12.334l268.334-268.666 268.334 268.666q12.332 12.332 30.332 12.332z" />
<glyph unicode="&#xe118;" glyph-name="uniE118" d="M512 960q18 0 30.332-12.332l150.668-151q12.668-12.666 12.668-30.332t-12.5-30.168-30.168-12.5-30.332 12.668l-78 78v-323.666h323.668l-78 78q-12.668 12.668-12.668 30.334t12.5 30.166 30.168 12.5 30.332-12.666l151-150.666q12.332-12.334 12.332-30.334t-12.332-30l-151-151q-12.668-12.668-30.332-12.668t-30.168 12.5-12.5 30.168 12.668 30.332l78 78h-323.666v-323.666l78 78q12.668 12.668 30.332 12.668t30.168-12.5 12.5-30.168-12.668-30.332l-150.668-151q-12.332-12.332-30.332-12.332-17.668 0-30 12.332l-151 151q-12.666 12.668-12.666 30.332t12.5 30.168 30.166 12.5 30.332-12.668l78-78v323.666h-323.666l78-78q12.668-12.668 12.668-30.332t-12.5-30.168-30.168-12.5-30.332 12.668l-151 150.668q-12.334 12.332-12.334 30.332t12.334 30.334l151 150.666q12.668 12.668 30.332 12.668t30.168-12.5 12.5-30.168-12.668-30.332l-78-78h323.666v323.666l-78-78q-12.666-12.668-30.332-12.668t-30.168 12.5-12.5 30.168 12.666 30.332l150.666 151q12.334 12.332 30.332 12.332z" />
<glyph unicode="&#xe119;" glyph-name="uniE119" d="M341.334 832h554.666q53 0 90.5-37.5t37.5-90.5v-512q0-53-37.5-90.5t-90.5-37.5h-554.668l-341.334 384zM896 746.668h-516.332l-265.334-298.668 265.334-298.666h516.332q17.668 0 30.168 12.5t12.5 30.168v512q0 17.668-12.5 30.168t-30.168 12.5zM810.668 576q0-18-12.332-30.334l-98-97.668 98-97.668q12.332-12.332 12.332-30.332 0-18.332-12.168-30.5t-30.5-12.168q-18 0-30.332 12.332l-97.668 98-97.668-98q-12.332-12.332-30.332-12.332-17.668 0-30.168 12.5t-12.5 30.168q0 17.332 12.334 30.332l98 97.668-98 97.668q-12.334 13-12.334 30.334 0 17.666 12.5 30.166t30.166 12.5q18 0 30.332-12.332l97.668-98 97.668 98q12.332 12.332 30.332 12.332 18.332 0 30.5-12.166t12.168-30.5z" />
<glyph unicode="&#xe120;" glyph-name="uniE120" d="M128 746.668h768q17.668 0 30.168-12.5t12.5-30.166-12.5-30.168-30.168-12.5h-768q-17.668 0-30.168 12.5t-12.5 30.168 12.5 30.166 30.168 12.5zM128 234.668h768q17.668 0 30.168-12.5t12.5-30.168-12.5-30.168-30.168-12.5h-768q-17.668 0-30.168 12.5t-12.5 30.168 12.5 30.168 30.168 12.5zM128 490.668h768q17.668 0 30.168-12.5t12.5-30.168-12.5-30.168-30.168-12.5h-768q-17.668 0-30.168 12.5t-12.5 30.168 12.5 30.168 30.168 12.5z" />
<glyph unicode="&#xe121;" glyph-name="uniE121" d="M256 832h512l256-256v-384q0-53-37.5-90.5t-90.5-37.5h-768q-53 0-90.5 37.5t-37.5 90.5v384zM938.668 192v298.668h-187.332q-28.332-74-94.5-122.334t-144.832-48.332q-52.332 0-101.668 22.332t-86 61.168-55 87.168h-184v-298.668q0-17.332 12.332-30t30.332-12.668h768q17.668 0 30.168 12.5t12.5 30.168zM903.332 576l-169 170.666h-443l-170.668-170.666h220.668q0-42.334 22.668-81.668t62.5-64.168 85.5-24.832 85.5 24.832 62.5 64.168 22.668 81.668h220.668z" />
<glyph unicode="&#xe122;" glyph-name="uniE122" d="M512 917.334q17.668 0 30.168-12.5t12.5-30.168v-494.334l140.332 140.668q12.332 12.334 30.332 12.334 18.332 0 30.5-12.166t12.168-30.5q0-18-12.332-30.334l-213.332-213.332q-12.332-12.332-30.332-12.332t-30.332 12.332l-213.332 213.332q-12.334 13-12.334 30.334 0 17.668 12.5 30.168t30.166 12.5q18 0 30.332-12.334l140.332-140.668v494.334q0 17.668 12.5 30.168t30.168 12.5zM938.668 320q17.668 0 30.168-12.5t12.5-30.168v-170.668q0-53.332-37-90.332-37.668-37.668-90-37.668h-683.668q-52.332 0-90.668 37.332-37.332 38.332-37.332 90.668v170.668q0 17.668 12.5 30.168t30.168 12.5 30.168-12.5 12.5-30.168v-170.668q0-17.668 12.5-30.168t30.168-12.5h683.668q17.332 0 29.5 12.5t12.168 30.168v170.668q0 17.668 12.5 30.168t30.168 12.5z" />
<glyph unicode="&#xe123;" glyph-name="uniE123" d="M512 915.334q18 0 30.332-12.334l213.332-213.332q12.332-12.332 12.332-30.332 0-18.334-12.168-30.5t-30.5-12.168q-18 0-30.332 12.332l-140.332 140.668v-494.334q0-17.668-12.5-30.168t-30.168-12.5-30.168 12.5-12.5 30.168v494.334l-140.332-140.668q-13-12.332-30.332-12.332-17.668 0-30.168 12.5t-12.5 30.168q0 17.332 12.334 30.332l213.334 213.334q12.334 12.332 30.332 12.332zM938.668 318q17.668 0 30.168-12.5t12.5-30.168v-170.668q0-53.332-37-90.332-37.668-37.668-90-37.668h-683.668q-52.332 0-90.668 37.332-37.332 38.332-37.332 90.668v170.668q0 17.668 12.5 30.168t30.168 12.5 30.168-12.5 12.5-30.168v-170.668q0-17.668 12.5-30.168t30.168-12.5h683.668q17.332 0 29.5 12.5t12.168 30.168v170.668q0 17.668 12.5 30.168t30.168 12.5z" />
<glyph unicode="&#xe124;" glyph-name="uniE124" d="M213.332 960h426.668l298.666-298.666v-597.334q0-53-37.5-90.5t-90.5-37.5h-597.332q-53 0-90.5 37.5t-37.5 90.5v768q0 53 37.5 90.5t90.5 37.5zM554.668 576v298.666h-341.334q-18 0-30.332-12.332t-12.332-30.332v-768q0-18 12.332-30.332t30.332-12.332h597.332q18 0 30.332 12.332t12.332 30.332v512h-298.666zM818 661.334l-178 178v-178h178z" />
<glyph unicode="&#xe125;" glyph-name="uniE125" d="M213.332 960h426.668l298.666-298.666v-597.334q0-53-37.5-90.5t-90.5-37.5h-597.332q-53 0-90.5 37.5t-37.5 90.5v768q0 53 37.5 90.5t90.5 37.5zM512 490.668q17.668 0 30.168-12.5t12.5-30.168v-85.332h85.332q17.668 0 30.168-12.5t12.5-30.168-12.5-30.168-30.168-12.5h-85.332v-85.332q0-17.668-12.5-30.168t-30.168-12.5-30.168 12.5-12.5 30.168v85.332h-85.332q-17.668 0-30.168 12.5t-12.5 30.168 12.5 30.168 30.168 12.5h85.332v85.332q0 17.668 12.5 30.168t30.168 12.5zM554.668 576v298.666h-341.334q-18 0-30.332-12.332t-12.332-30.332v-768q0-18 12.332-30.332t30.332-12.332h597.332q18 0 30.332 12.332t12.332 30.332v512h-298.666zM818 661.334l-178 178v-178h178z" />
<glyph unicode="&#xe126;" glyph-name="uniE126" d="M213.332 960h426.668l298.666-298.666v-597.334q0-53-37.5-90.5t-90.5-37.5h-597.332q-53 0-90.5 37.5t-37.5 90.5v768q0 53 37.5 90.5t90.5 37.5zM384 362.668h256q17.668 0 30.168-12.5t12.5-30.168-12.5-30.168-30.168-12.5h-256q-17.668 0-30.168 12.5t-12.5 30.168 12.5 30.168 30.168 12.5zM554.668 576v298.666h-341.334q-18 0-30.332-12.332t-12.332-30.332v-768q0-18 12.332-30.332t30.332-12.332h597.332q18 0 30.332 12.332t12.332 30.332v512h-298.666zM818 661.334l-178 178v-178h178z" />
<glyph unicode="&#xe127;" glyph-name="uniE127" d="M512 917.334q92 0 178.332-35t153.668-102.332 102.332-153.668 35-178.332-35-178.332-102.332-153.668-153.668-102.332-178.332-35-178.332 35-153.668 102.332-102.332 153.668-35 178.332 35 178.332 102.332 153.668 153.668 102.332 178.332 35zM334 565.668l-122 122q-41.332-51.666-62.668-113.334t-21.332-126.332 21.332-126.332 62.668-113.332l122 122q-35.332 53.332-35.332 117.668t35.332 117.668zM751.668 148l-122 122q-53.332-35.332-117.668-35.332t-117.668 35.332l-122-122q51.668-41.332 113.332-62.668t126.332-21.332 126.332 21.332 113.332 62.668zM512 576q-53 0-90.5-37.5t-37.5-90.5 37.5-90.5 90.5-37.5 90.5 37.5 37.5 90.5-37.5 90.5-90.5 37.5zM512 832q-64.668 0-126.332-21.334t-113.332-62.666l122-122q53.332 35.332 117.668 35.332t117.668-35.332l122 122q-51.668 41.332-113.332 62.666t-126.332 21.334zM812 687.668l-122-122q35.332-53.334 35.332-117.668t-35.332-117.668l122-122q41.332 51.668 62.668 113.332t21.332 126.332-21.332 126.334-62.668 113.332z" />
<glyph unicode="&#xe128;" glyph-name="uniE128" d="M170.668 917.334h298.666q17.668 0 30.168-12.5t12.5-30.168-12.5-30.168-30.168-12.5h-298.666q-17.668 0-30.168-12.5t-12.5-30.168v-682.668q0-17.668 12.5-30.168t30.168-12.5h682.668q17.668 0 30.168 12.5t12.5 30.168v298.666q0 17.668 12.5 30.168t30.168 12.5 30.168-12.5 12.5-30.168v-298.666q0-53-37.5-90.5t-90.5-37.5h-682.668q-53 0-90.5 37.5t-37.5 90.5v682.668q0 53 37.5 90.5t90.5 37.5zM682.668 917.334h256q17.668 0 30.168-12.5t12.5-30.168v-256q0-17.666-12.5-30.166t-30.168-12.5-30.168 12.5-12.5 30.166v153l-354-354q-12.332-12.332-30-12.332-18.332 0-30.5 12.168t-12.166 30.5q0 17.668 12.334 30l354 354h-153q-17.668 0-30.168 12.5t-12.5 30.168 12.5 30.168 30.168 12.5z" />
<glyph unicode="&#xe129;" glyph-name="uniE129" d="M853.332 576q53 0 90.5-37.5t37.5-90.5-37.5-90.5-90.5-37.5-90.5 37.5-37.5 90.5 37.5 90.5 90.5 37.5zM170.668 576q53 0 90.5-37.5t37.5-90.5-37.5-90.5-90.5-37.5-90.5 37.5-37.5 90.5 37.5 90.5 90.5 37.5zM170.668 490.668q-17.668 0-30.168-12.5t-12.5-30.168 12.5-30.168 30.168-12.5 30.168 12.5 12.5 30.168-12.5 30.168-30.168 12.5zM512 576q53 0 90.5-37.5t37.5-90.5-37.5-90.5-90.5-37.5-90.5 37.5-37.5 90.5 37.5 90.5 90.5 37.5zM512 490.668q-17.668 0-30.168-12.5t-12.5-30.168 12.5-30.168 30.168-12.5 30.168 12.5 12.5 30.168-12.5 30.168-30.168 12.5zM853.332 490.668q-17.668 0-30.168-12.5t-12.5-30.168 12.5-30.168 30.168-12.5 30.168 12.5 12.5 30.168-12.5 30.168-30.168 12.5z" />
<glyph unicode="&#xe5fe;" glyph-name="__iPad" horiz-adv-x="768" d="M674.851 97.905c0-15.8-12.569-28.571-28.119-28.571s-28.119 12.771-28.119 28.571v285.714c0 15.771 12.569 28.571 28.119 28.571s28.119-12.8 28.119-28.571v-285.714zM674.851 469.334h-56.238c-31.043 0-56.238-25.6-56.238-57.143v-342.857c0-31.543 25.194-57.143 56.238-57.143h56.238c31.043 0 56.238 25.6 56.238 57.143v342.857c0 31.543-25.194 57.143-56.238 57.143v0 0zM112.475 97.905c0-15.8-12.569-28.571-28.119-28.571s-28.119 12.771-28.119 28.571v485.714c0 15.771 12.569 28.571 28.119 28.571s28.119-12.8 28.119-28.571v-485.714zM112.475 669.334h-56.238c-31.043 0-56.238-25.6-56.238-57.143v-542.857c0-31.543 25.194-57.143 56.238-57.143h56.238c31.043 0 56.238 25.6 56.238 57.143v542.857c0 31.543-25.194 57.143-56.238 57.143v0 0zM393.663 97.905c0-15.8-12.569-28.571-28.119-28.571s-28.119 12.771-28.119 28.571v742.857c0 15.8 12.569 28.571 28.119 28.571s28.119-12.771 28.119-28.571v-742.857zM393.663 926.477h-56.238c-31.043 0-56.238-25.6-56.238-57.143v-800c0-31.543 25.194-57.143 56.238-57.143h56.238c31.043 0 56.238 25.6 56.238 57.143v800c0 31.543-25.194 57.143-56.238 57.143v0 0z" />
<glyph unicode="&#xe5ff;" glyph-name="award" horiz-adv-x="1126" d="M884.972 545.607v193.506c127.456 0 128.778 6.74 128.778-64.502s-57.632-129.004-128.778-129.004v0 0zM820.6 610.109c0-142.485-115.265-322.51-257.492-322.51s-257.492 180.025-257.492 322.51v193.506c0 31.896 33.509 64.502 64.373 64.502h386.238c30.864 0 64.373-31.574 64.373-64.502v-193.506zM241.243 545.607c-71.113 0-128.778 57.761-128.778 129.004s1.322 64.502 128.778 64.502v-193.506zM884.972 803.615c0 71.242-57.632 129.004-128.746 129.004h-386.238c-71.113 0-128.746-57.761-128.746-129.004-220.5 0-193.151 0.032-193.151-129.004 0-106.847 86.465-193.506 193.151-193.506 7.676 0 15.029 1.226 22.447 2.258 43.216-126.553 145.033-240.56 267.231-257.943v-195.828h-96.559c-17.77 0-32.186-14.416-32.186-32.251s14.416-32.251 32.186-32.251h257.492c17.77 0 32.186 14.416 32.186 32.251s-14.416 32.251-32.186 32.251h-96.559v195.828c122.199 17.383 224.015 131.39 267.264 257.943 7.385-1.032 14.739-2.258 22.414-2.258 106.686 0 193.151 86.658 193.151 193.506 0 129.036 27.349 129.004-193.151 129.004v0 0z" />
</font>
</defs>
</svg>
